<?xml version="1.0" standalone="no"?>
<!DOCTYPE svg PUBLIC "-//W3C//DTD SVG 1.1//EN" "http://www.w3.org/Graphics/SVG/1.1/DTD/svg11.dtd" >
<svg xmlns="http://www.w3.org/2000/svg" xmlns:xlink="http://www.w3.org/1999/xlink" version="1.1">
<metadata>
Created by FontForge 20170731 at Tue Nov  9 19:25:15 2021
 By Aleksey,,,
Copyright Nicky Laatz Creations LTD - All rights reserved - 2020
</metadata>
<defs>
<font id="GlamourAbsolute-regular" horiz-adv-x="586" >
  <font-face 
    font-family="Glamour Absolute regular"
    font-weight="400"
    font-stretch="normal"
    units-per-em="2048"
    panose-1="0 0 0 0 0 0 0 0 0 0"
    ascent="1638"
    descent="-410"
    x-height="912"
    cap-height="1280"
    bbox="-1177 -642 3832 1884.1"
    underline-thickness="100"
    underline-position="-400"
    unicode-range="U+0020-FB02"
  />
<missing-glyph horiz-adv-x="194" 
 />
    <glyph glyph-name=".notdef" horiz-adv-x="194" 
 />
    <glyph glyph-name=".null" horiz-adv-x="0" 
 />
    <glyph glyph-name="nonmarkingreturn" horiz-adv-x="682" 
 />
    <glyph glyph-name="space" unicode=" " horiz-adv-x="392" 
 />
    <glyph glyph-name="exclam" unicode="!" horiz-adv-x="474" 
d="M70 1086q-27 93 20 148.5t152 55.5q99 0 146.5 -55.5t27.5 -148.5q0 -84 -33.5 -240.5t-66.5 -271.5l-34 -114h-40q-7 18 -18.5 48.5t-41 116t-52.5 160.5t-41.5 161.5t-18.5 139.5zM106 150q0 74 42 117t114 43q71 0 113.5 -43.5t42.5 -116.5t-42.5 -116.5t-113.5 -43.5
q-72 0 -114 43t-42 117z" />
    <glyph glyph-name="quotedbl" unicode="&#x22;" horiz-adv-x="690" 
d="M478 808q-25 96 -56 256t-16 186q7 13 40.5 20.5t73.5 7.5q63 0 84 -16q15 -11 -25 -201.5t-61 -250.5zM142 810q-23 89 -54.5 252.5t-17.5 189.5q19 28 114 28q60 0 84 -16q16 -11 -24.5 -200.5t-61.5 -251.5z" />
    <glyph glyph-name="numbersign" unicode="#" horiz-adv-x="1024" 
d="M222 288h-254l32 224h256l34 208h-248l32 224h250l38 256h112l-40 -256h258l40 256h110l-38 -256h240l-32 -224h-244l-32 -208h222l-30 -224h-228l-44 -288h-110l44 288h-258l-44 -288h-112zM366 512h258l34 208h-258z" />
    <glyph glyph-name="dollar" unicode="$" horiz-adv-x="1000" 
d="M58 428h28q6 -11 19 -38t19 -38q59 -107 134 -177.5t154 -92.5v424q-146 29 -245 125t-99 239q0 161 91.5 268.5t252.5 139.5v152h76v-142q26 2 78 2v140h78v-150q132 -28 220 -106l14 -320h-26q-52 104 -98.5 176t-109.5 126v-394q142 -48 226 -148.5t84 -225.5
q0 -143 -82 -242.5t-228 -135.5v-160h-78v146q-36 -6 -78 -6v-140h-76v142q-106 7 -196.5 38t-141.5 78zM286 1000q0 -34 33 -71.5t93 -72.5v334q-60 -24 -93 -73.5t-33 -116.5zM488 816q11 -4 24 -9t29 -11.5t25 -9.5v418q-31 10 -78 4v-392zM488 476v-404q41 0 78 10v358
q-29 19 -78 36zM644 390v-280q88 50 88 146q0 68 -88 134z" />
    <glyph glyph-name="percent" unicode="%" horiz-adv-x="1580" 
d="M92 876q0 156 86.5 249t231.5 93q148 0 236 -83.5t88 -224.5q0 -159 -88 -253.5t-236 -94.5q-146 0 -232 85t-86 229zM1190 -14q-146 0 -232 85t-86 229q0 156 86.5 249t231.5 93q148 0 236 -83.5t88 -224.5q0 -159 -88 -253.5t-236 -94.5zM338 36l852 1242l112 -82
l-852 -1242zM1128 350q0 -127 22.5 -201.5t61.5 -74.5q25 0 39.5 45.5t14.5 122.5q0 147 -31 233.5t-83 86.5q-24 0 -24 -212zM348 928q0 -128 22.5 -202t61.5 -74q25 0 39.5 44.5t14.5 121.5q0 147 -31 233.5t-83 86.5q-24 0 -24 -210z" />
    <glyph glyph-name="ampersand" unicode="&#x26;" horiz-adv-x="1468" 
d="M106 354q-4 79 22.5 147.5t77.5 119.5t111.5 88.5t132.5 64.5q-121 113 -126 220q-4 77 32 142t95.5 106.5t129.5 65.5t141 28q47 3 104 -1.5t120.5 -18.5t106.5 -46.5t45 -79.5q5 -95 -33 -191t-93 -99q-15 -1 -28.5 17.5t-25 46.5t-33 59.5t-49 57t-76.5 38t-112 3.5
q-80 -11 -133.5 -63t-50.5 -131q3 -63 58 -122q48 24 120 24q66 0 113.5 -23t50.5 -67q3 -54 -25 -79t-75 -25q-53 0 -114 27t-88 57q-133 -88 -124 -250q9 -164 116.5 -271.5t269.5 -108.5q66 -1 133 14t131.5 47.5t105 94.5t40.5 144q0 38 -11.5 64.5t-32 40.5t-38.5 20.5
t-42 10.5q-363 -106 -222 -278l-32 -36q-61 68 -87 130t-30.5 106.5t30.5 91.5t60 73t96 64t99.5 50.5t108.5 45.5q30 13 45 19q47 20 68 54.5t16 66t-30.5 55t-63.5 22.5l6 52q68 7 124.5 -16.5t90 -65.5t49 -96.5t8.5 -107t-38.5 -99.5t-85.5 -73q54 -84 46 -202
q-5 -75 -35.5 -140t-78.5 -112t-107 -83.5t-125.5 -59t-129.5 -35.5t-124 -16q-81 -4 -159.5 6t-157 39.5t-139 76.5t-101.5 123.5t-47 172.5z" />
    <glyph glyph-name="quotesingle" unicode="'" horiz-adv-x="336" 
d="M30 1230q-6 22 5.5 36t34.5 14h196q23 0 33.5 -13.5t4.5 -34.5l-114 -454q-4 -18 -24 -18q-18 0 -22 18z" />
    <glyph glyph-name="parenleft" unicode="(" horiz-adv-x="502" 
d="M56 508q0 162 31.5 291.5t94.5 228.5t143.5 172t192.5 140l24 -42q-65 -38 -111.5 -94.5t-82.5 -147.5t-54 -227.5t-18 -320.5t18 -321t54 -228.5t82.5 -148t111.5 -94.5l-24 -42q-112 67 -192.5 140t-143.5 172t-94.5 229t-31.5 293z" />
    <glyph glyph-name="parenright" unicode=")" horiz-adv-x="502" 
d="M-62 1298l24 42q111 -67 191 -140t143 -172t94.5 -229t31.5 -293q0 -162 -31.5 -291.5t-94.5 -228.5t-143 -172t-191 -140l-24 42q64 38 110.5 94.5t83 147.5t54.5 227.5t18 320.5t-18 321t-54.5 228.5t-83 148t-110.5 94.5z" />
    <glyph glyph-name="asterisk" unicode="*" horiz-adv-x="588" 
d="M36 886q-24 43 -19.5 73.5t35.5 36.5l212 44l-212 44q-31 6 -35.5 36.5t19.5 75.5q31 58 66 58q21 0 36 -18l142 -164l-68 208q-11 32 12 51t72 19t73 -19t13 -51l-68 -208l142 164q15 18 34 18q32 0 66 -58q25 -45 21.5 -75.5t-35.5 -36.5l-212 -44l212 -44
q32 -6 35.5 -36.5t-21.5 -75.5q-31 -58 -66 -58q-19 0 -34 18l-142 164l68 -208q11 -32 -13 -51t-73 -19t-72 19t-12 51l68 208l-142 -164q-15 -18 -34 -18q-35 0 -68 60z" />
    <glyph glyph-name="plus" unicode="+" horiz-adv-x="950" 
d="M372 394h-284v130h284v302h138v-302h286v-130h-286v-298h-138v298z" />
    <glyph glyph-name="comma" unicode="," horiz-adv-x="508" 
d="M312 30q-44 -32 -84 -32q-52 0 -85 45t-33 107q0 72 42 115t112 43q85 0 133.5 -67t48.5 -157q0 -147 -76.5 -265t-205.5 -167v36q71 27 112.5 105t41.5 183q0 27 -6 54z" />
    <glyph glyph-name="hyphen" unicode="-" horiz-adv-x="808" 
d="M110 468v226h570v-226h-570z" />
    <glyph glyph-name="period" unicode="." horiz-adv-x="512" 
d="M120 150q0 74 42 117t114 43q71 0 112.5 -43.5t41.5 -116.5t-41.5 -116.5t-112.5 -43.5q-72 0 -114 43t-42 117z" />
    <glyph glyph-name="slash" unicode="/" horiz-adv-x="670" 
d="M-58 -316l602 1696h126l-602 -1696h-126z" />
    <glyph glyph-name="zero" unicode="0" horiz-adv-x="1014" 
d="M510 -8q-86 0 -158.5 28t-124.5 76.5t-91.5 111.5t-63 136.5t-35 147t-11.5 146.5q0 88 16 170t53 158.5t91.5 133t137.5 90.5t186 34t186 -34t137.5 -90.5t91.5 -133t53 -158.5t16 -170q0 -73 -11.5 -146.5t-35 -147t-63 -136.5t-91.5 -111.5t-124.5 -76.5t-158.5 -28z
M340 638q0 -75 1.5 -129t6.5 -128.5t16.5 -125.5t29.5 -99.5t47.5 -73t68.5 -24.5t68.5 24.5t47.5 73t29.5 99.5t16.5 125.5t6.5 128.5t1.5 129q0 74 -1.5 124.5t-6.5 117.5t-16.5 111t-29.5 85t-47.5 61.5t-68.5 20.5t-68.5 -20.5t-47.5 -61.5t-29.5 -85t-16.5 -111
t-6.5 -117.5t-1.5 -124.5z" />
    <glyph glyph-name="one" unicode="1" horiz-adv-x="668" 
d="M20 1008q-2 28 -2 38l386 154h56v-830q0 -134 31 -218t85 -90l20 -2q2 -14 2 -38v-22h-566v60l20 2q56 6 86 93.5t30 226.5q0 20 0.5 125t0 148t-4 114t-10.5 117q-24 125 -134 122z" />
    <glyph glyph-name="two" unicode="2" horiz-adv-x="928" 
d="M14 0v64q191 92 348 281q149 180 189 349q41 178 -67 253q-40 28 -98 39q-88 17 -159.5 -20.5t-94.5 -95.5l-34 22q55 142 171.5 226t256.5 84q156 0 236.5 -70.5t85.5 -193.5q3 -86 -20 -167t-59 -142t-92 -126.5t-105 -110t-111.5 -103.5t-98.5 -97q95 0 203.5 31
t188 83t90.5 106l4 20q14 2 36 2h22q-2 -17 -7 -65.5t-7 -76.5l-28 -292h-850z" />
    <glyph glyph-name="three" unicode="3" horiz-adv-x="912" 
d="M24 898q99 139 229.5 221.5t252.5 82.5q149 0 237.5 -71t88.5 -191q0 -77 -68 -144.5t-210 -145.5q150 -26 235 -108t85 -204q0 -165 -150 -271.5t-390 -106.5q-137 0 -286 38l-2 50q91 -20 180 -20q164 0 258 75t94 219q0 106 -68 160t-166 54q-51 0 -102 -16v48
q40 16 76 32.5t80.5 43.5t75.5 55.5t52.5 67t21.5 79.5q0 66 -50.5 105t-135.5 39q-102 0 -185 -31.5t-121 -84.5z" />
    <glyph glyph-name="four" unicode="4" horiz-adv-x="1064" 
d="M38 352q24 33 64.5 87t149.5 196t198.5 254t178.5 212.5t123 120.5h48q3 -306 0 -792h232v-130h-232v-326h-282v326h-480v52zM524 834q-144 -177 -316 -404h310v364q0 19 6 40z" />
    <glyph glyph-name="five" unicode="5" horiz-adv-x="820" 
d="M2 -56l-2 56q233 -29 364.5 45t131.5 241q0 42 -18 75t-44.5 54t-68.5 36t-77 22.5t-84 11.5t-76 4.5t-66 0.5q42 460 42 662h288q129 0 222.5 32.5t121.5 87.5l8 20q16 2 40 2h22q-12 -29 -51.5 -136.5t-62.5 -159.5l-58 -132h-464q-1 -11 -3 -44t-3 -44h122
q227 0 361.5 -107.5t134.5 -288.5q0 -205 -158.5 -328.5t-433.5 -123.5q-96 0 -188 14z" />
    <glyph glyph-name="six" unicode="6" horiz-adv-x="1082" 
d="M508 -30q-101 0 -184 39t-137 104t-89 152.5t-46.5 182.5t-3 194.5t36.5 189t76 166t111 124.5q160 120 346 120q130 0 260 -58l-14 -58q-101 46 -180 46q-74 0 -128.5 -40t-87.5 -114t-51 -160.5t-27 -197.5q29 33 87 62.5t131 29.5q209 0 322 -130q92 -105 85 -251
q-8 -150 -117 -259q-142 -142 -390 -142zM560 672q-63 0 -110.5 -64t-63.5 -155t-10 -182t50 -155t116 -64q54 0 94.5 34t60 89t27.5 121t-2 132t-29.5 121t-55 89t-77.5 34z" />
    <glyph glyph-name="seven" unicode="7" horiz-adv-x="996" 
d="M64 780l18 180l24 234l892 10q-55 -201 -210 -623t-208 -603h-312l540 944h-372q-130 0 -215 -32.5t-95 -87.5l-4 -20q-14 -2 -36 -2h-22z" />
    <glyph glyph-name="eight" unicode="8" horiz-adv-x="1000" 
d="M56 268q0 110 50.5 193t141.5 127q-136 136 -136 314q0 159 106.5 253.5t285.5 94.5q180 0 285 -75t105 -203q0 -94 -48.5 -172.5t-137.5 -129.5q120 -74 186 -166.5t66 -189.5q0 -167 -122.5 -265.5t-329.5 -98.5t-329.5 86t-122.5 232zM352 510q-30 -75 -30 -194
q0 -138 55 -220t147 -82q78 0 124 54.5t46 147.5q0 72 -67 139t-183 111q-44 16 -92 44zM348 1016q0 -89 52.5 -160.5t143.5 -105.5q43 -17 78 -34q38 86 38 208h2q0 121 -47 192.5t-127 71.5q-64 0 -102 -47t-38 -125z" />
    <glyph glyph-name="nine" unicode="9" horiz-adv-x="1076" 
d="M472 458q-212 -7 -335 121q-99 103 -101 248q-2 150 101 262q132 143 375 153q110 4 196.5 -32t141 -101t89 -152.5t43.5 -184.5t0 -199t-35.5 -194.5t-69 -172t-95.5 -130.5q-72 -67 -169 -108.5t-197 -41.5q-189 0 -322 150l24 46q134 -100 238 -100q75 0 136.5 48.5
t97 118.5t59 147.5t31 136.5t4.5 85q-23 -33 -81.5 -65t-130.5 -35zM516 1160q-54 -2 -93.5 -37t-57.5 -90.5t-24.5 -121.5t5.5 -132t32.5 -120t57 -87t78.5 -32q63 2 109.5 67t59.5 156.5t5 182.5t-54 153.5t-118 60.5z" />
    <glyph glyph-name="colon" unicode=":" horiz-adv-x="550" 
d="M122 150q0 74 42 117t114 43q71 0 112.5 -43.5t41.5 -116.5t-41.5 -116.5t-112.5 -43.5q-72 0 -114 43t-42 117zM278 718q-72 0 -114 43t-42 117t42 117t114 43q71 0 112.5 -43.5t41.5 -116.5t-41.5 -116.5t-112.5 -43.5z" />
    <glyph glyph-name="semicolon" unicode=";" horiz-adv-x="534" 
d="M116 150q0 72 42 115t112 43q85 0 133.5 -67t48.5 -157q0 -147 -76.5 -265t-205.5 -167v36q71 27 112.5 105t41.5 183q0 27 -6 54q-30 -40 -48 -40q-71 0 -112.5 43.5t-41.5 116.5zM116 922q0 72 42 115t112 43q69 0 110.5 -43t41.5 -115q0 -73 -41.5 -116.5
t-110.5 -43.5q-71 0 -112.5 43.5t-41.5 116.5z" />
    <glyph glyph-name="less" unicode="&#x3c;" horiz-adv-x="966" 
d="M20 584q3 0 9 4t9 4l840 320v-146l-716 -260l716 -260v-146l-858 328v156z" />
    <glyph glyph-name="equal" unicode="=" horiz-adv-x="1032" 
d="M140 420h772v-128h-772v128zM912 492h-772v128h772v-128z" />
    <glyph glyph-name="greater" unicode="&#x3e;" horiz-adv-x="946" 
d="M780 506l-692 260v146l808 -320q5 0 16 -6t16 -6v-148q-29 -11 -840 -332v146z" />
    <glyph glyph-name="question" unicode="?" horiz-adv-x="832" 
d="M72 1144q0 95 53.5 160.5t140.5 65.5q249 0 394 -156.5t128 -447.5q-2 -37 -10 -70.5t-31.5 -75t-60.5 -71.5t-103 -50.5t-153 -20.5h-74l-22 -126h-42l-68 322q-13 56 22 56h76q322 0 375 99q32 62 -46 138q-76 73 -191 105q-50 14 -94 14q-24 0 -78 -42t-78 -42
q-63 0 -100.5 38.5t-37.5 103.5zM316 -130q-81 0 -128.5 49t-47.5 133q0 83 47.5 131.5t128.5 48.5q80 0 128 -49t48 -131q0 -84 -48 -133t-128 -49z" />
    <glyph glyph-name="at" unicode="@" horiz-adv-x="1744" 
d="M942 -434q-184 0 -343.5 61.5t-274 171t-179.5 269t-65 348.5t65 348.5t179.5 269t274 171t343.5 61.5q144 0 269.5 -46.5t215.5 -125.5t150 -187.5t80.5 -229.5t-2.5 -255t-91 -260q-110 -137 -187 -179.5t-211 -42.5q-60 0 -133 43.5t-91 90.5q-136 -88 -274 -88
q-109 0 -178.5 71.5t-69.5 168.5q0 67 36.5 119t89.5 81.5t126 49.5t131.5 27.5t120.5 10.5v156q0 77 -19.5 122.5t-52.5 45.5q-65 0 -95.5 -65t-16.5 -171q-85 -22 -140 -22q-53 0 -144 22q-20 142 110.5 232.5t349.5 83.5q141 -5 223.5 -88t82.5 -226v-346q0 -37 2.5 -68
t9.5 -61.5t22 -45.5t36 -9q76 20 137 90.5t89.5 167.5t34.5 209.5t-32 221t-105 197.5t-190.5 143.5t-283.5 54.5q-215 0 -387 -91.5t-271.5 -261.5t-99.5 -389t99.5 -389t271.5 -261.5t387 -91.5q190 0 359.5 92.5t262.5 253.5l98 -52q-105 -187 -300.5 -294.5
t-419.5 -107.5zM924 458q-92 0 -157 -46t-65 -140q0 -66 41.5 -105t98.5 -39q46 0 84 26z" />
    <glyph glyph-name="A" unicode="A" horiz-adv-x="1462" 
d="M430 0h-416v60l22 2q54 4 118.5 89t117.5 219l370 942h78l456 -942q1 -2 11.5 -25.5t16.5 -35t20 -38.5t24 -44t27 -42.5t31.5 -41.5t34 -34.5t38 -28.5t40 -16t43.5 -4l2 -60h-624v60l22 2q46 3 46 74q0 88 -68 230l-24 50h-432l-18 -48q-36 -111 -36 -186q0 -53 19 -85
t55 -35l24 -2v-12q2 -6 2 -26v-22zM576 928l-160 -432h364z" />
    <glyph glyph-name="B" unicode="B" horiz-adv-x="1340" 
d="M-12 1258v22h698q246 0 392 -90.5t146 -243.5q0 -106 -86 -183t-240 -113q202 -25 310 -106t108 -204q0 -157 -154.5 -248.5t-425.5 -91.5h-748v22l2 38l20 2q54 6 85 90t31 218v540q0 134 -31 218t-85 90l-20 2q-2 14 -2 38zM440 598v-518h264q136 0 210 70t74 190
t-97 189t-275 69h-176zM440 672h196q127 0 201.5 74t74.5 200q0 116 -61.5 185t-164.5 69h-246v-528z" />
    <glyph glyph-name="C" unicode="C" horiz-adv-x="1382" 
d="M824 -10q-370 0 -590 176.5t-220 473.5q0 148 57.5 275t161.5 218.5t256.5 144t334.5 52.5q161 0 294.5 -46.5t207.5 -115.5l14 -298h-24q-6 12 -21 38t-21 38q-68 136 -188 220t-262 84q-139 0 -246.5 -80t-164.5 -218t-57 -312q0 -259 127.5 -413.5t340.5 -154.5
q145 0 264.5 75.5t185.5 208.5q6 12 21 38t21 38h24l-14 -300q-70 -66 -202.5 -104t-299.5 -38z" />
    <glyph glyph-name="D" unicode="D" horiz-adv-x="1496" 
d="M-12 1280h674q240 0 420 -78.5t277 -223.5t97 -338q0 -293 -195 -466.5t-525 -173.5h-748v22l2 38l20 2q54 6 85 90t31 218v540q0 134 -31 218t-85 90l-20 2q-2 14 -2 38v22zM662 1200h-222v-1120h296q187 0 297.5 151.5t110.5 408.5q0 256 -130.5 408t-351.5 152z" />
    <glyph glyph-name="E" unicode="E" horiz-adv-x="1196" 
d="M20 1220q-2 14 -2 38v22h1076l2 -40q2 -45 7 -148t7 -148l-24 2l-20 38q-52 100 -181 158t-291 58h-124v-518q146 6 255.5 37.5t152.5 80.5l18 20q24 2 46 2v-384l-46 2l-18 24q-41 56 -150.5 91t-257.5 43v-518h124q160 0 297 59t209 157l28 38q8 2 22 2
q-9 -45 -30 -148t-30 -148l-8 -40h-1064v22l2 38l18 2q54 6 86 90t32 218v540q0 134 -32 218t-86 90z" />
    <glyph glyph-name="F" unicode="F" horiz-adv-x="1186" 
d="M634 0h-608v22l2 38l18 2q54 6 85 90t31 218v540q0 134 -31 218t-85 90l-18 2q-2 14 -2 38v22h1134q12 -224 16 -336l-24 2l-20 38q-52 100 -181 158t-291 58h-182v-528q144 8 247.5 38t142.5 80l16 20q24 2 48 2v-384l-48 2l-16 24q-43 52 -146.5 87.5t-243.5 46.5v-218
q0 -134 36 -218t96 -90l22 -2q2 -14 2 -38v-22z" />
    <glyph glyph-name="G" unicode="G" horiz-adv-x="1452" 
d="M798 -10q-363 0 -577.5 176.5t-214.5 473.5t214.5 473.5t577.5 176.5q159 0 295 -38.5t207 -103.5l14 -298h-26q-6 12 -20 38t-20 38q-65 131 -188.5 207.5t-261.5 76.5q-205 0 -326.5 -154.5t-121.5 -415.5q0 -260 121.5 -414t326.5 -154q106 0 226 20v140
q0 134 -31 218t-85 90l-20 2q-2 14 -2 38v22h560v-22l-2 -38l-20 -2q-54 -6 -85 -90t-31 -218v-130q-86 -51 -224.5 -81.5t-285.5 -30.5z" />
    <glyph glyph-name="H" unicode="H" horiz-adv-x="1442" 
d="M608 0h-590v22l2 38l18 2q54 6 86 90t32 218v540q0 134 -32 218t-86 90l-18 2q-2 14 -2 38v22h590v-22l-2 -38l-20 -2q-54 -6 -85 -90t-31 -218v-236h504v236q0 134 -31 218t-85 90l-20 2q-2 14 -2 38v22h588v-22l-2 -38l-20 -2q-54 -6 -85 -90t-31 -218v-540
q0 -134 31 -218t85 -90l20 -2q2 -14 2 -38v-22h-588v22l2 38l20 2q54 6 85 90t31 218v222h-504v-222q0 -134 31 -218t85 -90l20 -2q2 -14 2 -38v-22z" />
    <glyph glyph-name="I" unicode="I" horiz-adv-x="660" 
d="M42 1220q-2 14 -2 38v22h576v-22l-2 -38l-20 -2q-54 -6 -85 -90t-31 -218v-540q0 -134 31 -218t85 -90l20 -2q2 -14 2 -38v-22h-576v22l2 38l20 2q54 6 85 90t31 218v540q0 134 -31 218t-85 90z" />
    <glyph glyph-name="J" unicode="J" horiz-adv-x="858" 
d="M-58 162q-11 59 23 93.5t101 34.5q55 0 93 -34.5t49 -93.5q9 -53 38.5 -84.5t69.5 -31.5q41 0 57.5 77.5t16.5 264.5v522q0 134 -31 218t-85 90l-20 2q-2 14 -2 38v22h588v-22l-2 -38l-20 -2q-51 -4 -82 -81t-34 -201l2 -276q0 -252 -46 -399t-146.5 -214t-273.5 -67
q-122 0 -201.5 49t-94.5 133z" />
    <glyph glyph-name="K" unicode="K" horiz-adv-x="1340" 
d="M-10 1220q-2 14 -2 38v22h590v-22l-2 -38l-20 -2q-53 -6 -84.5 -90.5t-31.5 -217.5v-540q0 -133 31.5 -217.5t84.5 -90.5l20 -2q2 -14 2 -38v-22h-590v22l2 38l20 2q54 6 85 90t31 218v540q0 134 -31 218t-85 90zM460 620q48 53 138 152q220 242 277 320q83 114 29 128
q-2 20 -2 60h336v-60l-24 -2q-31 -2 -69.5 -21.5t-81.5 -54.5t-81 -70t-83.5 -84.5t-74.5 -82t-68 -78.5t-50 -59q41 -65 95.5 -144t138 -189t159.5 -196t153.5 -147.5t127.5 -61.5v-40h-106q-81 0 -129 1.5t-103.5 8t-89.5 19t-71 35t-65.5 55.5t-57.5 81q-51 85 -149 215
t-149 215z" />
    <glyph glyph-name="L" unicode="L" horiz-adv-x="1174" 
d="M20 1220q-2 14 -2 38v22h590v-22l-2 -38l-20 -2q-54 -6 -85 -90t-31 -218v-830h144q150 0 280 65.5t194 174.5l28 42l36 -12q-26 -124 -62 -310l-8 -40h-1064v22l2 38l18 2q54 6 86 90t32 218v540q0 134 -32 218t-86 90z" />
    <glyph glyph-name="M" unicode="M" horiz-adv-x="1868" 
d="M462 0h-430v60l20 2q54 6 88.5 90t39.5 218l22 566q2 123 -26.5 199.5t-77.5 82.5l-18 2q-2 14 -2 38v22h380l494 -928l420 928h142v2h274v-60l-18 -2q-51 -6 -77.5 -90.5t-20.5 -217.5l26 -580q11 -119 45 -192.5t83 -77.5l20 -2v-60h-584v22l2 38l20 2q49 4 77.5 78
t30.5 194l-14 704l-496 -1048h-76q-78 149 -255 452.5t-257 457.5l-18 -500q-6 -148 36 -241t118 -97l30 -2q2 -14 2 -38v-22z" />
    <glyph glyph-name="N" unicode="N" horiz-adv-x="1394" 
d="M8 1258v22h418l726 -826v456q0 134 -31 218t-85 90l-20 2q-2 14 -2 38v22h370v-22l-2 -38l-20 -2q-54 -6 -85 -90t-31 -218v-912h-124q-137 174 -441 503t-441 503v-634q0 -134 32 -218t86 -90l18 -2q2 -14 2 -38v-22h-368v60l20 2q53 6 84.5 90.5t31.5 217.5v540
q0 133 -31.5 217.5t-84.5 90.5l-20 2q-2 14 -2 38z" />
    <glyph glyph-name="O" unicode="O" horiz-adv-x="1436" 
d="M720 -10q-166 0 -299.5 51.5t-218.5 140.5t-130.5 206t-45.5 252q0 108 28 208.5t86 187.5t139 152t194.5 102.5t246.5 37.5q132 0 245 -37.5t194 -102.5t139 -152t86 -187.5t28 -208.5q0 -135 -45.5 -252t-130.5 -206t-218 -140.5t-298 -51.5zM350 640q0 -156 45 -285
t130.5 -206t194.5 -77q107 0 193 77t132.5 206.5t46.5 284.5q0 157 -46.5 295.5t-133 225.5t-192.5 87q-108 0 -194 -87.5t-131 -225.5t-45 -295z" />
    <glyph glyph-name="P" unicode="P" horiz-adv-x="1126" 
d="M-12 1280h648q232 0 370 -101t138 -271q0 -174 -148 -277t-398 -103h-158v-158q0 -133 31.5 -217.5t84.5 -90.5l20 -2q2 -14 2 -38v-22h-590v22l2 38l20 2q54 6 85 90t31 218v540q0 134 -31 218t-85 90l-20 2q-2 14 -2 38v22zM636 1200h-196v-592h158q100 0 159 81.5
t59 218.5q0 134 -49 213t-131 79z" />
    <glyph glyph-name="Q" unicode="Q" horiz-adv-x="1422" 
d="M34 640q0 108 26.5 206.5t81.5 183.5t133.5 148t190 98.5t244.5 35.5q164 0 295 -54.5t212.5 -148.5t124 -213.5t42.5 -255.5q0 -206 -88 -354t-242 -222t-358 -74q28 -8 127 -39t161.5 -45t117.5 -14q71 0 114.5 33.5t43.5 88.5h76q0 -144 -91.5 -230t-244.5 -86
q-89 0 -290 63t-290 63q-57 0 -92.5 -28t-35.5 -74h-80q0 126 75 205.5t203 88.5q-222 58 -339 227t-117 397zM378 640q0 -160 35.5 -286t112 -204t184.5 -78q106 0 182 78t111 204t35 286q0 161 -35 292.5t-111 215.5t-182 84q-108 0 -185 -84.5t-112 -215.5t-35 -292z" />
    <glyph glyph-name="R" unicode="R" horiz-adv-x="1482" 
d="M44 0v22l2 38l20 2q54 6 85 90t31 218v540q0 134 -31 218t-85 90l-20 2q-2 14 -2 38v22h698q252 0 402 -94.5t150 -253.5q0 -121 -82 -225.5t-222 -146.5q23 -27 71 -88.5t86.5 -111t93.5 -110t101.5 -101t99.5 -69t98 -28.5v-52h-104h-92.5t-75.5 2.5t-62.5 4t-50.5 9
t-43 13t-37 20.5t-35.5 26t-35 36t-39.5 44.5t-45 56.5q-69 87 -162.5 184.5t-115.5 125.5h-146v-152q0 -134 32 -218t86 -90l18 -2q2 -14 2 -38v-22h-590zM496 602h196q122 0 198 96.5t76 233.5q0 123 -61 195.5t-163 72.5h-246v-598z" />
    <glyph glyph-name="S" unicode="S" horiz-adv-x="1028" 
d="M18 428h28q18 -28 44 -76q71 -132 178 -216t208 -84q126 0 203 59t77 145q0 71 -103.5 140.5t-278.5 117.5q-156 42 -251 139t-95 217q0 192 141 306t379 114q100 0 202 -32t166 -84l18 -320h-30q-22 77 -76 157.5t-135 140t-161 58.5q-122 -2 -194 -58t-72 -152
q0 -60 102.5 -123.5t273.5 -110.5q164 -45 262 -147.5t98 -230.5q0 -184 -144.5 -301t-381.5 -117q-132 0 -252.5 40t-187.5 98z" />
    <glyph glyph-name="T" unicode="T" horiz-adv-x="1346" 
d="M-6 916q31 219 42 324l6 40h1266l6 -40q7 -49 21 -162t21 -162l-26 2l-24 42q-71 111 -198.5 176t-275.5 64v-830q0 -134 31 -218t85 -90l20 -2q2 -14 2 -38v-22h-590v22l2 38l20 2q54 6 85 90t31 218v830q-148 1 -275.5 -64t-198.5 -176l-24 -42q-12 -2 -26 -2z" />
    <glyph glyph-name="U" unicode="U" horiz-adv-x="1316" 
d="M-30 1220q-2 14 -2 38v22h590v-22l-2 -38l-18 -2q-54 -6 -85 -90t-31 -218v-534q0 -131 66 -201.5t214 -70.5q203 0 293.5 80t90.5 230l2 514q-6 128 -43 206t-97 84l-22 2q-2 14 -2 38v22h414q-2 -8 -2 -22v-38l-22 -2q-60 -6 -96 -95.5t-36 -232.5v-508
q0 -189 -124.5 -290.5t-401.5 -101.5q-148 0 -255 31.5t-171 91.5t-94 140.5t-30 186.5v470q0 134 -31 218t-85 90z" />
    <glyph glyph-name="V" unicode="V" horiz-adv-x="1314" 
d="M-54 1218l-18 2v60h610v-22l-2 -38l-22 -2q-57 -5 -51 -89.5t71 -218.5l266 -546l188 492q60 157 52.5 256.5t-80.5 105.5l-28 2q-2 52 -2 60h426v-60l-22 -2q-54 -4 -118.5 -89t-117.5 -219l-370 -940h-80l-460 940q-67 136 -132.5 220t-109.5 88z" />
    <glyph glyph-name="W" unicode="W" horiz-adv-x="2076" 
d="M8 1220v60h596v-22l-2 -38l-20 -2q-51 -4 -49.5 -89.5t55.5 -218.5q36 -94 107 -268.5t99 -245.5l316 904h78l410 -858l150 468q42 132 28.5 217.5t-76.5 90.5l-26 2v38l-2 22h404v-60l-22 -2q-54 -4 -111 -85t-101 -211l-316 -952h-76l-434 844l-294 -844h-78l-396 940
q-58 136 -117 220t-103 88z" />
    <glyph glyph-name="X" unicode="X" horiz-adv-x="1312" 
d="M366 0h-414v60l22 2q58 6 155 90t201 218l172 222q-32 47 -69 100t-82.5 118t-70.5 100q-93 133 -175.5 217.5t-126.5 90.5l-16 2v60h600v-22l-2 -38l-18 -2q-65 -8 1 -147q33 -70 95 -161q13 -19 39 -56t39 -56l86 112q132 171 137 258q3 47 -37 50l-22 2q-2 14 -2 38
v22h418v-60l-24 -2q-56 -4 -153.5 -88.5t-208.5 -219.5l-146 -180q184 -264 278 -396q183 -259 292 -274v-60h-598v22l2 38l18 2q53 5 21 100q-25 75 -97 180l-130 182l-102 -142q-153 -214 -138 -290q6 -27 34 -30l20 -2q2 -14 2 -38v-22z" />
    <glyph glyph-name="Y" unicode="Y" horiz-adv-x="1392" 
d="M34 1218l-18 2v60h602v-22q0 -35 -2 -37t-14 -3q-53 -5 -10 -119q29 -79 100 -189q22 -34 63.5 -98t54.5 -84l130 180q132 191 126 272q-3 35 -36 38l-22 2q-2 14 -2 38v22h370v-60l-20 -2q-50 -4 -138 -88t-190 -220l-182 -244v-296q0 -134 31 -218t85 -90l20 -2
q2 -14 2 -38v-22h-588v22l2 38l20 2q49 4 79.5 75.5t36.5 188.5l-2 252l-216 332q-88 136 -164 220t-118 88z" />
    <glyph glyph-name="Z" unicode="Z" horiz-adv-x="1066" 
d="M-44 972q12 41 41 134t41 134l12 40h956l-624 -1196h78q150 0 279 65.5t197 174.5l26 42q20 -6 38 -12q-35 -168 -62 -312l-10 -42h-942l622 1200h-108q-144 0 -277.5 -51.5t-212.5 -140.5l-30 -34q-12 -2 -24 -2z" />
    <glyph glyph-name="bracketleft" unicode="[" horiz-adv-x="440" 
d="M56 1280h424v-64h-204v-1392h204v-64h-424v1520z" />
    <glyph glyph-name="backslash" unicode="\" horiz-adv-x="450" 
d="M410 -316l-584 1696h98l584 -1696h-98z" />
    <glyph glyph-name="bracketright" unicode="]" horiz-adv-x="508" 
d="M8 1280h422v-1520h-422v64h204v1392h-204v64z" />
    <glyph glyph-name="asciicircum" unicode="^" 
d="M76 972l-30 24l158 324q40 80 88 80q54 0 92 -82q39 -84 78.5 -164.5t59.5 -119.5l20 -38l-30 -24q-126 140 -220 228q-93 -72 -216 -228z" />
    <glyph glyph-name="underscore" unicode="_" horiz-adv-x="904" 
d="M-48 -100h1000v-162h-1000v162z" />
    <glyph glyph-name="grave" unicode="`" horiz-adv-x="426" 
d="M-38 1242q-5 26 46 85.5t86 66.5q18 4 120 -159t130 -223l-28 -30q-198 120 -276 186q-75 52 -78 74z" />
    <glyph glyph-name="a" unicode="a" horiz-adv-x="996" 
d="M26 226q0 67 36.5 119t89.5 81.5t126 49.5t131.5 27.5t120.5 10.5v156q0 77 -19.5 122.5t-52.5 45.5q-65 0 -95.5 -65t-16.5 -171q-85 -22 -140 -22q-53 0 -144 22q-13 93 41.5 167t164.5 114t254 35q141 -5 223.5 -88t82.5 -226v-346q0 -70 17 -106t61 -36q61 0 84 42
l30 -38q-39 -71 -109.5 -107.5t-196.5 -36.5q-60 0 -104 26t-60 72q-136 -88 -276 -88q-109 0 -178.5 71.5t-69.5 168.5zM308 272q0 -66 41.5 -105t98.5 -39q46 0 84 26l-2 304q-92 0 -157 -46t-65 -140z" />
    <glyph glyph-name="b" unicode="b" horiz-adv-x="1070" 
d="M-46 1172q-2 10 -2 20l364 148h56v-504q26 39 103.5 62.5t188.5 23.5q168 0 268 -129.5t100 -346.5q0 -209 -136.5 -332.5t-367.5 -123.5q-63 0 -154.5 37t-131.5 37q-35 0 -68 -17t-54 -47h-30v810q0 129 -10 193t-33 97t-75 62zM372 360q0 -132 42 -210t114 -78
q87 0 138.5 80.5t51.5 215.5q0 194 -74 309t-198 115q-67 0 -74 -30v-402z" />
    <glyph glyph-name="c" unicode="c" horiz-adv-x="952" 
d="M38 410q0 234 143.5 373t386.5 139q159 0 259 -54.5t107 -147.5q0 -58 -34 -93t-90 -35q-60 0 -98 39t-44 105q-4 48 -39 76t-91 28q-92 0 -146 -86.5t-54 -231.5q0 -83 22.5 -153.5t67 -124.5t117.5 -81t167 -19q45 4 103.5 42.5t88.5 105.5l32 -28q-34 -70 -90.5 -125
t-119.5 -86t-124 -47t-114 -16q-206 0 -328 114t-122 306z" />
    <glyph glyph-name="d" unicode="d" horiz-adv-x="1084" 
d="M406 -10q-172 0 -273 108.5t-101 293.5q0 243 130.5 386.5t351.5 143.5q80 0 152 -52q-2 101 -12.5 155t-33.5 83.5t-70 53.5l-20 10q-2 8 -2 20l362 148h56v-812q0 -128 10 -191.5t33 -96.5t75 -62l18 -10q2 -8 2 -20l-362 -148h-56v136q-59 -68 -127.5 -107t-132.5 -39
zM326 502q0 -153 63.5 -243.5t170.5 -90.5q65 0 106 24v558q-62 92 -166 92q-80 0 -127 -92t-47 -248z" />
    <glyph glyph-name="e" unicode="e" horiz-adv-x="974" 
d="M38 410q0 234 134 373t362 139q187 0 298.5 -127.5t111.5 -340.5l-600 -10q10 -70 34.5 -125t67 -98t109.5 -63.5t155 -13.5q43 3 96 41t100 107l32 -28q-37 -71 -92.5 -126t-117 -86t-121.5 -46.5t-115 -15.5q-207 0 -330.5 114t-123.5 306zM518 840q-84 0 -133.5 -91.5
t-46.5 -240.5h232q88 4 116 80q27 69 -10 147q-38 81 -117 100q-20 5 -41 5z" />
    <glyph glyph-name="f" unicode="f" horiz-adv-x="738" 
d="M14 0v22l2 38l18 2q54 6 86 90t32 218v428h-132v114h132q11 246 108.5 356.5t325.5 107.5q126 -1 228 -66t110 -146q0 -60 -34.5 -95t-91.5 -35q-65 0 -112 38t-30 92q8 24 10.5 44t-1.5 39.5t-16 33t-37 21t-62 6.5q-46 -2 -82 -101.5t-36 -234.5v-60h286v-114h-286
v-428q0 -134 32 -218t86 -90l18 -2q2 -14 2 -38v-22h-556z" />
    <glyph glyph-name="g" unicode="g" horiz-adv-x="998" 
d="M8 -294q-6 93 46.5 146.5t149.5 69.5q-71 32 -110.5 86t-39.5 122q0 135 118 194q-152 89 -152 254q0 149 122 246.5t310 97.5q169 0 288 -78q72 171 156 184q68 11 103.5 -16.5t50.5 -89.5q10 -44 -21 -75t-63 -21q-9 3 -53 22.5t-69 19.5q-41 0 -84 -38
q140 -101 140 -252q0 -144 -129 -233t-319 -89q-103 0 -190 28q-16 -19 -16 -54q0 -31 31.5 -51t84.5 -23q188 -2 214 -4q167 -12 280 -92t120 -194q7 -100 -40.5 -180t-131.5 -129t-190.5 -73.5t-221.5 -21.5q-64 2 -128 17.5t-121 44t-94 76t-41 106.5zM196 -270
q0 -78 57.5 -137t160.5 -59q166 0 253 53.5t69 156.5q-11 67 -75 96.5t-181 37.5q-28 2 -66.5 3t-67.5 3t-56 8q-94 -19 -94 -162zM452 854q-70 0 -119 -80t-49 -196q0 -113 48.5 -184.5t119.5 -71.5q73 0 129.5 72.5t56.5 183.5q0 114 -57.5 195t-128.5 81z" />
    <glyph glyph-name="h" unicode="h" horiz-adv-x="1134" 
d="M16 1192l362 148h56v-556q46 57 134.5 97.5t197.5 40.5q216 0 216 -308v-244q0 -134 31 -218t85 -90l20 -2q2 -14 2 -38v-22h-1100v60l18 2q54 6 85 90t31 218v442q0 128 -10 191.5t-33 96.5t-75 62l-18 10q-2 8 -2 20zM700 584q0 80 -37 146t-95 66q-65 0 -134 -94v-332
q0 -133 31.5 -217.5t84.5 -90.5l18 -2h6l10 2q54 11 85 93t31 215v214z" />
    <glyph glyph-name="i" unicode="i" horiz-adv-x="590" 
d="M16 0v22l2 38l18 2q56 6 87 94t31 226q0 129 -10 193t-33 97t-75 62l-18 10q-2 10 -2 20l364 148h56v-542q0 -133 31.5 -217.5t84.5 -90.5l20 -2q2 -14 2 -38v-22h-558zM280 1052q-72 0 -114 43t-42 117t42 117t114 43q71 0 112.5 -43.5t41.5 -116.5t-41.5 -116.5
t-112.5 -43.5z" />
    <glyph glyph-name="j" unicode="j" horiz-adv-x="562" 
d="M-34 -520l-28 40q94 31 141 75t69 135t22 260q1 -1 1.5 32.5t0.5 109v131v163.5q-1 110 -11 166t-33 87t-72 55l-20 10q-2 10 -2 20l366 148h56v-94q0 -744 2 -748q0 -93 -10 -162.5t-34.5 -126.5t-59.5 -97.5t-93.5 -77.5t-127 -65.5t-167.5 -60.5zM144 1212
q0 73 41.5 116.5t112.5 43.5q72 0 114 -43t42 -117t-42 -117t-114 -43q-71 0 -112.5 43.5t-41.5 116.5z" />
    <glyph glyph-name="k" unicode="k" horiz-adv-x="1196" 
d="M572 0h-558v22l2 38l18 2q54 6 86 90t32 218v440q0 129 -10 193t-33 97t-75 62l-18 10q-2 10 -2 20l364 148h56v-838l46 40q98 85 168 155t98.5 109t15.5 44l-3 1.5t-2 1.5t-1.5 2t-1 3t-0.5 3.5v5v6v8v9.5v22h328v-60l-24 -2q-101 -9 -370 -210l232 -310
q93 -119 177 -191.5t137 -76.5l24 -2v-60h-584v22l2 38l10 2q39 7 -26 122q-44 80 -126 186q-17 22 -50 66t-50 66v-132q0 -133 31.5 -217.5t84.5 -90.5l20 -2q2 -14 2 -38v-22z" />
    <glyph glyph-name="l" unicode="l" horiz-adv-x="590" 
d="M16 1192l364 148h56v-970q0 -133 31.5 -217.5t84.5 -90.5l20 -2q2 -14 2 -38v-22h-558v22l2 38l18 2q54 6 86 90t32 218v440q0 129 -10 193t-33 97t-75 62l-18 10q-2 10 -2 20z" />
    <glyph glyph-name="m" unicode="m" horiz-adv-x="1720" 
d="M14 0v22l2 38l18 2q56 6 87 94t31 228q0 128 -10 191.5t-33 96.5t-75 62l-18 10q-2 8 -2 20l362 148h56v-138q43 60 135 104t205 44q164 0 202 -174q61 64 169.5 119t210.5 55q216 0 216 -308v-244q0 -134 31 -218t85 -90l20 -2v-60h-558v60l24 2q54 4 85 88.5t31 219.5
v214q0 78 -40 141t-100 63q-83 0 -162 -120q2 -18 2 -54v-244q0 -135 31 -219.5t85 -88.5l26 -2v-60h-542v60l10 2q53 10 80.5 91t27.5 217v214q0 81 -37 147.5t-95 66.5q-67 0 -142 -106v-322q0 -134 32 -218t86 -90l20 -2v-60h-556z" />
    <glyph glyph-name="n" unicode="n" horiz-adv-x="1130" 
d="M10 0v22l2 38l20 2q54 6 85 94.5t31 227.5q0 129 -9 192.5t-32.5 97.5t-74.5 60l-20 10q-2 8 -2 20l362 148h56v-138q43 60 135 104t205 44q216 0 216 -308v-244q0 -134 31 -218t85 -90l20 -2q2 -14 2 -38v-22h-542v60l12 2q53 9 81.5 90.5t28.5 217.5v214
q0 81 -37 147.5t-95 66.5q-67 0 -142 -106v-322q0 -134 31 -218t85 -90l16 -2v-60h-550z" />
    <glyph glyph-name="o" unicode="o" horiz-adv-x="1082" 
d="M544 -10q-232 0 -369 126.5t-137 339.5t137 339.5t369 126.5q229 0 365.5 -126.5t136.5 -339.5t-136.5 -339.5t-365.5 -126.5zM346 456q0 -183 54 -291.5t144 -108.5t144 108.5t54 291.5t-54 291.5t-144 108.5t-144 -108.5t-54 -291.5z" />
    <glyph glyph-name="p" unicode="p" horiz-adv-x="1178" 
d="M28 -500v22l2 38l18 2q54 6 85 90t31 218v514q0 129 -9 191.5t-32 96.5t-75 62l-18 10q-2 8 -2 20l362 148h56v-92q33 42 116 72t184 30q172 0 286.5 -148.5t105.5 -375.5q-3 -82 -33.5 -153t-78.5 -120.5t-109 -85t-127 -52.5t-132 -17q-129 0 -212 62v-130
q0 -138 32 -236t84 -104l20 -2q2 -14 2 -38v-22h-556zM526 790q-55 -11 -80 -48v-454q0 -26 2 -38v-68q21 -50 61 -81t83 -33q106 -3 168 71.5t62 208.5q0 127 -40 235t-109 165.5t-147 41.5z" />
    <glyph glyph-name="q" unicode="q" horiz-adv-x="1120" 
d="M40 392q0 243 129 386.5t345 143.5q52 0 127 -40t107 -40q60 0 107.5 19t68.5 51h30v-1042q0 -133 31.5 -217.5t84.5 -90.5l20 -2q2 -14 2 -38v-22h-556v22l2 38l18 2q54 6 86 90t32 218v280q-63 -75 -141 -117.5t-153 -42.5q-156 0 -248 109t-92 293zM336 502
q0 -153 54 -243.5t146 -90.5t138 46v314q0 143 -43.5 227.5t-116.5 84.5q-81 0 -129.5 -92t-48.5 -246z" />
    <glyph glyph-name="r" unicode="r" horiz-adv-x="874" 
d="M28 0v22l2 38l18 2q56 6 86 94t30 228q0 129 -9 191.5t-32 96.5t-75 62l-18 10q-2 8 -2 20l362 148h56v-292q107 260 238 284q154 27 184 -150q9 -60 -28 -104.5t-72 -31.5q-6 2 -62.5 30t-89.5 28q-82 0 -170 -130v-176q0 -134 31 -218t85 -90l20 -2q2 -14 2 -38v-22
h-556z" />
    <glyph glyph-name="s" unicode="s" horiz-adv-x="784" 
d="M46 70l-10 240q2 0 9.5 -1t14.5 -1q36 -99 114.5 -180.5t177.5 -81.5q72 0 115 37.5t43 100.5q0 42 -45.5 85t-122.5 73q-133 52 -215.5 135.5t-82.5 162.5q0 132 114.5 217t305.5 85q72 0 154.5 -26t125.5 -74l-8 -220h-30q-3 5 -16 31t-17.5 34.5t-17.5 32.5t-20 34
t-21 30.5t-24 29.5t-25 23t-28.5 20.5t-30.5 12t-34 6.5q-84 4 -138 -38t-56 -98q0 -17 7.5 -32t27 -30.5t39 -28t57 -29.5t66.5 -29t81 -33q93 -37 148.5 -111.5t55.5 -156.5q0 -142 -115.5 -226t-312.5 -84q-82 0 -159 24.5t-127 65.5z" />
    <glyph glyph-name="t" unicode="t" horiz-adv-x="662" 
d="M102 798h-116v32q72 15 170 108.5t188 233.5h46v-260h266v-114h-266q-2 -394 -2 -568q0 -66 20.5 -88t79.5 -22q35 0 83 26t89 86l20 -26q-37 -65 -85 -111.5t-95 -67t-83 -29t-67 -8.5q-145 0 -196.5 59.5t-51.5 230.5v518z" />
    <glyph glyph-name="u" unicode="u" horiz-adv-x="1086" 
d="M0 890v22h420v-576q0 -72 49 -113t143 -41q41 0 72 38v308q2 137 -29.5 226.5t-86.5 95.5l-18 2q-2 14 -2 38v22h418v-384q0 -129 9 -192.5t32.5 -97.5t74.5 -60l20 -10q2 -8 2 -20l-362 -148h-58v164q-132 -174 -294 -174q-123 0 -187.5 84t-64.5 232v236q0 134 -31 218
t-85 90l-20 2q-2 14 -2 38z" />
    <glyph glyph-name="v" unicode="v" horiz-adv-x="984" 
d="M-142 852v60h564v-22v-10.5v-8.5t0.5 -6t0 -5t-0.5 -3.5t-1 -2.5t-2 -1.5t-3 -1t-3.5 -1t-4.5 -0.5q-46 -5 -7 -123q27 -79 85 -185q78 -141 128 -234l106 234q60 134 72.5 217t-26.5 91q-4 0 -6 0.5l-4 1t-3 1t-2 2.5t-1 3.5t-0.5 5t0 6.5t0.5 9v11v22h338v-60l-20 -2
q-57 -6 -132.5 -91t-139.5 -217l-274 -562h-58l-302 562q-71 134 -148.5 219t-133.5 89z" />
    <glyph glyph-name="w" unicode="w" horiz-adv-x="1732" 
d="M-58 852v60h564v-22l-2 -38l-18 -2q-43 -5 -34 -77.5t66 -190.5l150 -276l184 406q-50 71 -86.5 103.5t-75.5 36.5v60h566v-22l-2 -38l-20 -2q-34 -3 -40.5 -42.5t16 -108.5t70.5 -157q83 -151 126 -234l108 234q61 132 61 217.5t-59 90.5l-26 2v38l-2 22h394v-60l-22 -2
q-56 -4 -129.5 -88.5t-142.5 -219.5l-284 -562h-46l-304 562q-17 36 -66 116l-322 -678h-46l-302 562q-72 134 -142 219t-116 89z" />
    <glyph glyph-name="x" unicode="x" horiz-adv-x="1022" 
d="M-42 0v60l24 2q65 6 164 89t212 219l28 34l-90 138q-85 135 -163.5 219.5t-124.5 88.5l-18 2v60h582v-22q0 -34 -2 -36.5t-16 -3.5q-48 -4 -17 -101q16 -51 51 -115q114 149 99 199q-4 15 -21 17l-18 2q-2 14 -2 38v22h364v-60l-22 -2q-55 -4 -153.5 -76.5t-216.5 -191.5
q0 -4 4 -8l130 -204q88 -137 161 -220.5t113 -87.5l16 -2v-60h-538v22l2 38l12 2q39 7 -6 117q-30 72 -88 163q-121 -166 -110 -241q6 -36 44 -39l26 -2q2 -52 2 -60h-428z" />
    <glyph glyph-name="y" unicode="y" horiz-adv-x="1032" 
d="M-86 912h566v-22v-11t0.5 -9t0 -6.5t-0.5 -5t-1 -3.5t-2 -2.5t-3 -1l-4 -1t-6 -0.5q-23 -7 -22.5 -44.5t27.5 -106.5t75 -157q19 -34 40 -73t46.5 -87t39.5 -74l106 234q61 135 73.5 217t-27.5 91q-4 1 -5 1t-4 1t-3 1.5t-1.5 2.5t-1 3t0 4.5t0 6.5t0.5 9v11v22h336v-60
l-20 -2q-56 -6 -130 -90t-142 -218l-286 -562q-16 -30 -39.5 -79t-39.5 -83.5t-41.5 -79.5t-48.5 -76t-56.5 -64t-69 -52.5t-83.5 -32.5t-102 -13q-75 0 -119.5 32.5t-44.5 87.5q0 56 39 89t105 33q26 0 74 -13t83 -26l35 -13q97 2 238 334l-278 518q-71 134 -148.5 219
t-133.5 89l-22 2v60z" />
    <glyph glyph-name="z" unicode="z" horiz-adv-x="856" 
d="M14 676q-12 -2 -26 -2q48 148 64 204l10 34h754l-448 -840q126 18 229.5 80t156.5 154l28 42q20 -6 36 -12q-15 -84 -62 -302h2l-8 -34h-754l456 842q-127 -8 -237.5 -45.5t-174.5 -96.5z" />
    <glyph glyph-name="braceleft" unicode="{" horiz-adv-x="414" 
d="M-48 484v50q55 0 85.5 23t30.5 69v358q0 135 80.5 215.5t215.5 80.5h78v-50q-72 9 -113 -58.5t-41 -187.5v-196q0 -112 -53 -185.5t-145 -94.5q92 -21 145 -102.5t53 -203.5l2 -168q0 -114 37 -181t99 -67h16v-48h-78q-135 0 -215.5 80.5t-80.5 215.5v330q0 120 -116 120
z" />
    <glyph glyph-name="bar" unicode="|" horiz-adv-x="336" 
d="M58 1440h220v-1940h-220v1940z" />
    <glyph glyph-name="braceright" unicode="}" horiz-adv-x="414" 
d="M30 -262h-78v50q72 -9 113 58.5t41 187.5v196q0 112 53 185.5t145 94.5q-92 21 -145 102.5t-53 203.5l-2 168q0 114 -37 181t-99 67h-16v48h78q135 0 215.5 -80.5t80.5 -215.5v-330q0 -120 116 -120v-50q-55 0 -85.5 -23t-30.5 -69v-358q0 -135 -80.5 -215.5
t-215.5 -80.5z" />
    <glyph glyph-name="asciitilde" unicode="~" 
d="M2 576h-48q0 135 51 215.5t137 80.5q53 0 174 -63t174 -63q45 0 70.5 33t25.5 89h46q0 -144 -55.5 -230t-148.5 -86q-53 0 -174 63t-174 63q-36 0 -57 -27.5t-21 -74.5z" />
    <glyph glyph-name="exclamdown" unicode="&#xa1;" horiz-adv-x="474" 
d="M230 -378q-99 0 -145.5 55.5t-26.5 148.5q0 107 14 211t33.5 175.5t39 128t33.5 83.5l14 28h38q7 -10 19 -28.5t42 -81.5t52.5 -131t41.5 -173t19 -212q26 -93 -21.5 -148.5t-152.5 -55.5zM56 762q0 74 42 117t114 43q71 0 112.5 -43.5t41.5 -116.5t-41.5 -116.5
t-112.5 -43.5q-72 0 -114 43t-42 117z" />
    <glyph glyph-name="cent" unicode="&#xa2;" horiz-adv-x="972" 
d="M38 410q0 217 124 352.5t338 155.5v144h78v-140q155 -2 252 -56.5t104 -145.5q0 -58 -34.5 -93t-91.5 -35q-59 0 -97.5 39t-42.5 105q-3 38 -27.5 64.5t-62.5 35.5v-648q73 -20 146 -20q36 0 85 33.5t95 90.5l32 -28q-82 -98 -176 -166t-182 -94v-154h-78v140h-14
q-204 0 -326 114t-122 306zM338 522q0 -101 42.5 -178.5t119.5 -121.5v614q-75 -17 -118.5 -100.5t-43.5 -213.5z" />
    <glyph glyph-name="sterling" unicode="&#xa3;" horiz-adv-x="1106" 
d="M44 694h182q-36 71 -46 152.5t13 161t74.5 144t147 104.5t221.5 40q164 0 263 -61t99 -161q0 -66 -39.5 -109t-102.5 -43q-59 0 -98.5 37.5t-39.5 92.5q0 34 26 80q12 21 13 37.5t-8 27t-21.5 17.5t-31.5 10.5t-34 4.5t-32 1q-91 0 -133.5 -43.5t-42.5 -130.5
q0 -49 17.5 -126.5t29.5 -114.5t39 -121h282v-94h-256q94 -330 -196 -368l478 16q56 2 86.5 15t47.5 49l22 56h66l-80 -368h-908v120q120 72 171 140.5t51 159.5q0 9 -0.5 16.5t-0.5 13t-1.5 13.5t-2 12t-3.5 13.5t-4.5 13.5t-6 17t-6 18t-8 22t-9.5 25l-6 16h-212v94z" />
    <glyph glyph-name="yen" unicode="&#xa5;" horiz-adv-x="1392" 
d="M16 1280h602v-22q0 -35 -2 -37t-14 -3q-53 -5 -10 -119q29 -79 100 -189q10 -16 52 -81t64 -101l130 180q128 177 128 263q1 44 -36 47l-22 2q-2 14 -2 38v22h370v-60l-20 -2q-50 -4 -138 -88t-190 -220l-182 -244v-144h138v-94h-138v-58v-8h138v-94h-132q11 -92 39 -147
t71 -59l20 -2q2 -14 2 -38v-22h-588v22l2 38l20 2q42 4 71 58.5t41 147.5h-158v94h162v66h-162v94h160v56l-216 332q-87 135 -163.5 218.5t-120.5 89.5l-16 2v60z" />
    <glyph glyph-name="section" unicode="&#xa7;" horiz-adv-x="1098" 
d="M76 486q0 205 152 294q-34 62 -34 132q0 161 106 258.5t302 97.5q83 0 169 -26t141 -68l14 -262h-24q-31 101 -122.5 196t-191.5 94q-97 -1 -147.5 -55.5t-44.5 -128.5q5 -61 45 -106t99.5 -71.5t130 -49t140 -47.5t127 -57t93 -87t35.5 -130q0 -176 -174 -258
q46 -67 46 -144q0 -153 -116 -252.5t-304 -99.5q-106 0 -202.5 34.5t-151.5 83.5l-12 268h22q7 -10 19.5 -33t16.5 -29q72 -114 152 -184t156 -70q101 0 163.5 50t60.5 122q0 27 -13.5 50.5t-41.5 43.5t-58.5 35.5t-81 32t-91 28t-104.5 28.5q-140 36 -208 118t-68 192z
M296 706q-36 -46 -36 -106q0 -53 91 -109t251 -97q143 -37 232 -116q68 37 68 92q0 59 -126 134t-290 116q-119 30 -190 86z" />
    <glyph glyph-name="dieresis" unicode="&#xa8;" horiz-adv-x="1152" 
d="M308 1194q0 54 31 86t85 32q52 0 83 -32t31 -86q0 -55 -30.5 -87.5t-83.5 -32.5q-54 0 -85 32t-31 88zM768 1074q-54 0 -84 32t-30 88q0 54 30 86t84 32t84 -32t30 -86q0 -56 -30 -88t-84 -32z" />
    <glyph glyph-name="copyright" unicode="&#xa9;" horiz-adv-x="1492" 
d="M746 -34q-140 0 -267 57t-219 152t-146 225t-54 270t53.5 268.5t144.5 223.5t218.5 151.5t269.5 56.5q141 0 269 -55.5t219.5 -149.5t145.5 -223.5t54 -271.5q0 -141 -53.5 -270t-144.5 -224.5t-219.5 -152.5t-270.5 -57zM222 670q0 -112 38 -215.5t105 -183
t166.5 -127.5t214.5 -48q152 0 274 80.5t187 211t65 282.5q0 149 -65 279.5t-187 212.5t-274 82q-112 0 -211 -48t-167 -127.5t-107 -183.5t-39 -215zM778 1092q87 0 160 -29.5t116 -72.5l8 -190h-14q-52 94 -124 150t-154 56q-74 0 -125.5 -56t-72.5 -133t-20 -163
q1 -55 16 -109.5t42.5 -102t73 -77t102.5 -29.5q46 0 93 18t94.5 61.5t74.5 106.5h14l-8 -190q-40 -41 -112 -64.5t-164 -23.5q-202 0 -321 111t-119 299q0 191 120.5 314.5t319.5 123.5z" />
    <glyph glyph-name="ordfeminine" unicode="&#xaa;" horiz-adv-x="804" 
d="M70 760q0 46 25 82.5t62.5 57t87.5 34.5t91.5 19.5t83.5 6.5v108q0 53 -14 85.5t-36 32.5q-44 0 -65 -45.5t-13 -120.5q-50 -14 -96 -14q-45 0 -98 14q-15 98 75 160.5t243 59.5q97 -2 154.5 -60t57.5 -156v-240q0 -49 11 -74.5t41 -25.5q43 0 60 30l22 -28
q-28 -49 -77 -74.5t-137 -25.5q-43 0 -73.5 18t-40.5 52q-90 -64 -192 -64q-75 0 -123.5 50.5t-48.5 117.5zM266 794q0 -46 29 -74t69 -28q29 0 56 18v210q-64 0 -109 -31t-45 -95z" />
    <glyph glyph-name="guillemotleft" unicode="&#xab;" horiz-adv-x="900" 
d="M382 454v18q6 2 17 7.5t52 32.5t88.5 64t126.5 108.5t166 161.5l32 -32q-56 -56 -212 -362q37 -74 92 -162.5t92 -139.5l36 -52l-32 -32q-306 292 -420 370l-38 4q-5 9 0 14zM-20 470v2q11 0 27 3.5t60.5 25t97 57.5t139 111.5t184.5 176.5l32 -32q-111 -113 -260 -360
q41 -63 108 -152t114 -146l46 -58l-32 -32q-280 260 -430 364l-86 10q-10 23 0 30z" />
    <glyph glyph-name="registered" unicode="&#xae;" horiz-adv-x="946" 
d="M60 946q0 174 119.5 298t294.5 124q172 0 293 -124.5t121 -297.5q0 -113 -54 -210.5t-150 -155.5t-210 -58q-175 0 -294.5 124t-119.5 300zM158 946q0 -144 93 -245t225 -101q131 0 224.5 101t93.5 245t-93.5 245t-224.5 101q-132 0 -225 -101t-93 -245zM264 784l6 2
q34 10 34 92v164q0 88 -34 94h-6q-2 4 -2 12v6h212q76 0 121 -29t45 -77q0 -36 -24 -67.5t-66 -44.5q1 -2 24 -32t34.5 -43.5t33 -36t40 -32.5t34.5 -10v-16h-34q-76 0 -96 8.5t-58 55.5q-22 28 -50.5 57.5t-33.5 36.5h-44v-46q0 -82 34 -92l6 -2v-18h-178v6zM400 948h58
q38 0 61 29.5t23 70.5q0 38 -18.5 60t-49.5 22h-74v-182z" />
    <glyph glyph-name="macron" unicode="&#xaf;" 
d="M-16 1106v160h618v-160h-618z" />
    <glyph glyph-name="degree" unicode="&#xb0;" 
d="M292 982q-77 0 -131.5 54t-54.5 130q0 86 50 136t136 50q87 0 138.5 -50.5t51.5 -135.5q0 -76 -56 -130t-134 -54zM184 1166q0 -50 31.5 -85t76.5 -35q46 0 79 35t33 85q0 55 -30.5 87.5t-81.5 32.5q-50 0 -79 -32.5t-29 -87.5z" />
    <glyph glyph-name="twosuperior" unicode="&#xb2;" horiz-adv-x="608" 
d="M52 574v60l4 2q63 32 129 90.5t115.5 136.5t49.5 145q0 47 -34 72.5t-82 25.5q-31 0 -64 -14t-44 -46l-2 -6l-30 18l6 18q21 64 66 105t86.5 54t83.5 13q83 0 131.5 -41.5t48.5 -124.5q0 -59 -18.5 -111.5t-59 -102.5t-71 -80t-87.5 -80q206 27 226 126h44
q-3 -24 -10 -113.5t-16 -136.5l-2 -10h-470z" />
    <glyph glyph-name="threesuperior" unicode="&#xb3;" horiz-adv-x="570" 
d="M54 1058l12 18q54 81 126.5 125.5t141.5 44.5q79 0 130.5 -40.5t51.5 -117.5q0 -78 -120 -154q61 -12 102.5 -62.5t41.5 -113.5q0 -47 -18.5 -85t-48 -62.5t-69 -41.5t-80.5 -24t-84 -7q-90 0 -154 22l-6 2l-4 54l8 -2q48 -12 98 -12q78 0 131 37t53 111q0 49 -35.5 75.5
t-86.5 26.5q-29 0 -56 -8l-6 -2v54l6 2q52 20 94 46q39 29 57.5 67.5t-0.5 68.5t-83 30q-36 0 -84 -19t-78 -49l-4 -4z" />
    <glyph glyph-name="acute" unicode="&#xb4;" horiz-adv-x="426" 
d="M110 982l-26 30q24 57 127 221.5t123 160.5q34 -7 84.5 -66.5t47.5 -85.5q-3 -20 -80 -74q-35 -29 -104 -75.5t-120 -78.5z" />
    <glyph glyph-name="periodcentered" unicode="&#xb7;" 
d="M118 556q0 74 42 117t114 43q71 0 112.5 -43.5t41.5 -116.5t-41.5 -116.5t-112.5 -43.5q-72 0 -114 43t-42 117z" />
    <glyph glyph-name="cedilla" unicode="&#xb8;" horiz-adv-x="538" 
d="M224 -440q-45 0 -93.5 24t-84.5 64l22 26q27 -30 98 -30q69 0 109.5 22.5t40.5 61.5q0 55 -26 81.5t-68 26.5q-47 0 -94 -28l-18 14q127 165 134 176l84 -4q-63 -19 -160 -134q69 36 122 36q91 0 144.5 -45.5t53.5 -122.5t-71.5 -122.5t-192.5 -45.5z" />
    <glyph glyph-name="onesuperior" unicode="&#xb9;" horiz-adv-x="428" 
d="M50 1124l256 82v-462q0 -153 78 -156v-58h-324v58q76 13 76 170v108q0 128 -12.5 169.5t-63.5 40.5h-4z" />
    <glyph glyph-name="ordmasculine" unicode="&#xba;" horiz-adv-x="656" 
d="M328 580q-76 0 -135 31.5t-92 82.5t-49 108t-16 116q0 58 16 110.5t49 97.5t91.5 71.5t135.5 26.5q61 0 111 -17.5t82.5 -47t54 -70t31 -83t9.5 -88.5q0 -59 -16 -116t-48 -108t-90 -82.5t-134 -31.5zM226 918q0 -41 0.5 -66.5t3.5 -63.5t9.5 -61.5t17.5 -47.5t29 -35.5
t42 -11.5q28 0 47.5 18.5t29.5 44t15.5 68.5t6.5 75t1 80q0 60 -2.5 96t-11.5 78t-30.5 62t-55.5 20q-24 0 -42 -9t-29 -29.5t-17.5 -40.5t-9.5 -54.5t-3.5 -58t-0.5 -64.5z" />
    <glyph glyph-name="guillemotright" unicode="&#xbb;" horiz-adv-x="900" 
d="M30 98q134 188 218 354q-156 306 -212 362l32 32q87 -90 165 -161.5t128 -109.5t87 -63t54 -32l16 -8v-18q5 -5 0 -14q-16 -2 -38 -4q-51 -35 -156 -127.5t-184 -167.5l-80 -75zM372 98q178 214 268 356q-149 247 -260 360l32 32q98 -101 184.5 -176.5t139 -111.5
t97 -57.5t60.5 -25t27 -3.5v-2q10 -7 0 -30q-40 -4 -86 -10q-67 -46 -174.5 -137t-181.5 -159l-74 -68z" />
    <glyph glyph-name="questiondown" unicode="&#xbf;" horiz-adv-x="644" 
d="M470 -378q-211 0 -335.5 138t-124.5 372q0 32 6.5 62.5t27 66.5t53.5 62.5t91.5 44.5t135.5 18h66l18 60h36l62 -232q6 -22 0.5 -36t-20.5 -14h-66q-85 0 -149.5 -4.5t-100.5 -11.5t-59 -16.5t-30 -17.5t-7 -16q0 -114 83 -181t223 -67q21 0 69 37t69 37q55 0 88.5 -34.5
t33.5 -91.5q0 -81 -46 -128.5t-124 -47.5zM270 762q0 73 41.5 116.5t112.5 43.5q72 0 114 -43t42 -117t-42 -117t-114 -43q-71 0 -112.5 43.5t-41.5 116.5z" />
    <glyph glyph-name="Agrave" unicode="&#xc0;" horiz-adv-x="1462" 
d="M14 0v60l22 2q54 4 118.5 89t117.5 219l370 942h78l456 -942q1 -2 11.5 -25.5t16.5 -35t20 -38.5t24 -44t27 -42.5t31.5 -41.5t34 -34.5t38 -28.5t40 -16t43.5 -4l2 -60h-624v60l22 2q46 3 46 74q0 88 -68 230l-24 50h-432l-18 -48q-36 -111 -36 -186q0 -53 19 -85
t55 -35l24 -2v-12q2 -6 2 -26v-22h-416zM416 496h364l-204 432zM486 1662q-5 26 46 85.5t86 66.5q18 4 120 -159t130 -223l-28 -30q-198 120 -276 186q-75 52 -78 74z" />
    <glyph glyph-name="Aacute" unicode="&#xc1;" horiz-adv-x="1462" 
d="M14 0v60l22 2q54 4 118.5 89t117.5 219l370 942h78l456 -942q1 -2 11.5 -25.5t16.5 -35t20 -38.5t24 -44t27 -42.5t31.5 -41.5t34 -34.5t38 -28.5t40 -16t43.5 -4l2 -60h-624v60l22 2q46 3 46 74q0 88 -68 230l-24 50h-432l-18 -48q-36 -111 -36 -186q0 -53 19 -85
t55 -35l24 -2v-12q2 -6 2 -26v-22h-416zM576 928l-160 -432h364zM586 1394l-28 30q28 61 130 223.5t122 158.5q34 -7 84.5 -66.5t47.5 -85.5q-6 -22 -80 -74q-35 -29 -104 -75.5t-120 -78.5z" />
    <glyph glyph-name="Acircumflex" unicode="&#xc2;" horiz-adv-x="1462" 
d="M430 0h-416v60l22 2q54 4 118.5 89t117.5 219l370 942h78l456 -942q1 -2 11.5 -25.5t16.5 -35t20 -38.5t24 -44t27 -42.5t31.5 -41.5t34 -34.5t38 -28.5t40 -16t43.5 -4l2 -60h-624v60l22 2q46 3 46 74q0 88 -68 230l-24 50h-432l-18 -48q-36 -111 -36 -186q0 -53 19 -85
t55 -35l24 -2v-12q2 -6 2 -26v-22zM576 928l-160 -432h364zM442 1400l158 324q40 80 88 80q54 0 92 -82q39 -84 78.5 -164.5t59.5 -119.5l20 -38l-30 -24q-126 140 -222 228q-94 -77 -214 -228z" />
    <glyph glyph-name="Atilde" unicode="&#xc3;" horiz-adv-x="1462" 
d="M14 0v60l22 2q54 4 118.5 89t117.5 219l370 942h78l456 -942q1 -2 11.5 -25.5t16.5 -35t20 -38.5t24 -44t27 -42.5t31.5 -41.5t34 -34.5t38 -28.5t40 -16t43.5 -4l2 -60h-624v60l22 2q46 3 46 74q0 88 -68 230l-24 50h-432l-18 -48q-36 -111 -36 -186q0 -53 19 -85
t55 -35l24 -2v-12q2 -6 2 -26v-22h-416zM402 1466q0 118 44 188t118 70q47 0 154 -55t154 -55q37 0 58.5 29t21.5 79h42q0 -127 -48 -202.5t-130 -75.5q-46 0 -152.5 56t-153.5 56q-30 0 -49 -25t-19 -65h-40zM416 496h364l-204 432z" />
    <glyph glyph-name="Adieresis" unicode="&#xc4;" horiz-adv-x="1462" 
d="M430 0h-416v60l22 2q54 4 118.5 89t117.5 219l370 942h78l456 -942q1 -2 11.5 -25.5t16.5 -35t20 -38.5t24 -44t27 -42.5t31.5 -41.5t34 -34.5t38 -28.5t40 -16t43.5 -4l2 -60h-624v60l22 2q46 3 46 74q0 88 -68 230l-24 50h-432l-18 -48q-36 -111 -36 -186q0 -53 19 -85
t55 -35l24 -2v-12q2 -6 2 -26v-22zM576 928l-160 -432h364zM748 1624q0 54 30 86t84 32t84 -32t30 -86q0 -56 -30 -88t-84 -32t-84 32t-30 88zM516 1504q-54 0 -84 32t-30 88q0 54 30 86t84 32t84 -32t30 -86q0 -56 -30 -88t-84 -32z" />
    <glyph glyph-name="Aring" unicode="&#xc5;" horiz-adv-x="1462" 
d="M430 0h-416v60l22 2q54 4 118.5 89t117.5 219l370 942h78l456 -942q1 -2 11.5 -25.5t16.5 -35t20 -38.5t24 -44t27 -42.5t31.5 -41.5t34 -34.5t38 -28.5t40 -16t43.5 -4l2 -60h-624v60l22 2q46 3 46 74q0 88 -68 230l-24 50h-432l-18 -48q-36 -111 -36 -186q0 -53 19 -85
t55 -35l24 -2v-12q2 -6 2 -26v-22zM682 1466q-78 0 -133 54t-55 130q0 86 50.5 136t137.5 50q86 0 137 -50.5t51 -135.5q0 -76 -55.5 -130t-132.5 -54zM576 928l-160 -432h364zM572 1650q0 -50 32 -85t78 -35q45 0 77.5 35.5t32.5 84.5q0 55 -30 87.5t-80 32.5t-80 -32.5
t-30 -87.5z" />
    <glyph glyph-name="AE" unicode="&#xc6;" horiz-adv-x="1988" 
d="M440 4l-474 -4l28 58l22 2q130 13 336 310l506 840q-16 8 -26 8l-20 2q-2 14 -2 38v22h1078l2 -40q2 -45 7 -148t7 -148l-24 2l-22 38q-57 98 -184.5 157t-285.5 59h-126v-518q147 6 257 37.5t153 80.5l18 20q24 2 46 2v-384l-46 2l-18 24q-41 56 -151.5 91t-258.5 43
v-518h126q161 0 299.5 58.5t206.5 157.5l26 38q10 2 24 2q-8 -36 -60 -296l-8 -40h-1066v22l2 38l20 2q54 6 86 90t32 218v42l-470 -6q-22 -23 -56.5 -100t-45 -155t63.5 -87l26 -2q-8 -14 -18 -36zM530 486l420 4l-2 420q0 156 -30 228z" />
    <glyph glyph-name="Ccedilla" unicode="&#xc7;" horiz-adv-x="1396" 
d="M784 -10q-358 9 -568 184t-210 466q0 297 220 473.5t590 176.5q169 0 311 -38.5t211 -103.5l14 -298h-26q-6 14 -21 41t-19 35q-65 131 -194 207.5t-276 76.5q-213 0 -339.5 -154.5t-126.5 -415.5q0 -260 126.5 -414t339.5 -154q147 0 276 76.5t194 207.5q4 8 19 35
t21 41h26l-14 -300q-64 -60 -192.5 -98t-283.5 -44q-62 -29 -148 -130q65 36 120 36q91 0 145.5 -45.5t54.5 -122.5t-71.5 -122.5t-194.5 -45.5q-45 0 -93.5 24t-82.5 64l22 26q23 -30 96 -30q71 0 111.5 22.5t40.5 61.5q0 55 -26 81.5t-68 26.5q-47 0 -94 -28l-18 14
q24 31 55.5 72.5t48 63t24.5 32.5z" />
    <glyph glyph-name="Egrave" unicode="&#xc8;" horiz-adv-x="1196" 
d="M1082 0h-1064v22l2 38l18 2q54 6 86 90t32 218v540q0 134 -32 218t-86 90l-18 2q-2 14 -2 38v22h1076l2 -40q2 -45 7 -148t7 -148l-24 2l-20 38q-52 100 -181 158t-291 58h-124v-518q146 6 255.5 37.5t152.5 80.5l18 20q24 2 46 2v-384l-46 2l-18 24q-41 56 -150.5 91
t-257.5 43v-518h124q160 0 297 59t209 157l28 38q8 2 22 2q-9 -45 -30 -148t-30 -148zM370 1678q-5 26 46.5 85.5t85.5 66.5q20 4 123 -160.5t127 -221.5l-26 -30q-198 120 -276 186q-74 52 -80 74z" />
    <glyph glyph-name="Eacute" unicode="&#xc9;" horiz-adv-x="1196" 
d="M1082 0h-1064v22l2 38l18 2q54 6 86 90t32 218v540q0 134 -32 218t-86 90l-18 2q-2 14 -2 38v22h1076l2 -40q2 -45 7 -148t7 -148l-24 2l-20 38q-52 100 -181 158t-291 58h-124v-518q146 6 255.5 37.5t152.5 80.5l18 20q24 2 46 2v-384l-46 2l-18 24q-41 56 -150.5 91
t-257.5 43v-518h124q160 0 297 59t209 157l28 38q8 2 22 2q-9 -45 -30 -148t-30 -148zM450 1502q28 60 130 223t120 159q35 -7 85 -66.5t47 -85.5q-3 -23 -80 -74q-34 -29 -102.5 -75.5t-119.5 -78.5l-52 -32z" />
    <glyph glyph-name="Ecircumflex" unicode="&#xca;" horiz-adv-x="1196" 
d="M1082 0h-1064v22l2 38l18 2q54 6 86 90t32 218v540q0 134 -32 218t-86 90l-18 2q-2 14 -2 38v22h1076l2 -40q2 -45 7 -148t7 -148l-24 2l-20 38q-52 100 -181 158t-291 58h-124v-518q146 6 255.5 37.5t152.5 80.5l18 20q24 2 46 2v-384l-46 2l-18 24q-41 56 -150.5 91
t-257.5 43v-518h124q160 0 297 59t209 157l28 38q8 2 22 2q-9 -45 -30 -148t-30 -148zM328 1394l-30 24l158 324q40 80 90 80q52 0 90 -82q39 -84 78.5 -164.5t59.5 -119.5l20 -38l-30 -24q-126 140 -220 228q-93 -72 -216 -228z" />
    <glyph glyph-name="Edieresis" unicode="&#xcb;" horiz-adv-x="1196" 
d="M20 1220q-2 14 -2 38v22h1076l2 -40q2 -45 7 -148t7 -148l-24 2l-20 38q-52 100 -181 158t-291 58h-124v-518q146 6 255.5 37.5t152.5 80.5l18 20q24 2 46 2v-384l-46 2l-18 24q-41 56 -150.5 91t-257.5 43v-518h124q160 0 297 59t209 157l28 38q8 2 22 2
q-9 -45 -30 -148t-30 -148l-8 -40h-1064v22l2 38l18 2q54 6 86 90t32 218v540q0 134 -32 218t-86 90zM306 1698q0 54 31 86t85 32q52 0 83 -32t31 -86q0 -55 -30.5 -87.5t-83.5 -32.5q-54 0 -85 32t-31 88zM652 1698q0 54 30 86t84 32t84 -32t30 -86q0 -56 -30 -88t-84 -32
t-84 32t-30 88z" />
    <glyph glyph-name="Igrave" unicode="&#xcc;" horiz-adv-x="624" 
d="M30 1220q-2 14 -2 38v22h574v-22l-2 -38l-20 -2q-54 -6 -85 -90t-31 -218v-540q0 -134 31 -218t85 -90l20 -2q2 -14 2 -38v-22h-574v22l2 38l18 2q54 6 86 90t32 218v540q0 134 -32 218t-86 90zM114 1688q-5 26 46.5 85.5t85.5 66.5q20 4 123 -160.5t127 -221.5l-26 -30
q-198 120 -276 186q-74 52 -80 74z" />
    <glyph glyph-name="Iacute" unicode="&#xcd;" horiz-adv-x="624" 
d="M28 1280h574v-22l-2 -38l-20 -2q-54 -6 -85 -90t-31 -218v-540q0 -134 31 -218t85 -90l20 -2q2 -14 2 -38v-22h-574v22l2 38l18 2q54 6 86 90t32 218v540q0 134 -32 218t-86 90l-18 2q-2 14 -2 38v22zM148 1434q24 57 127 221.5t123 160.5q34 -7 84.5 -66.5t47.5 -85.5
q-3 -20 -80 -74q-35 -29 -104 -75.5t-120 -78.5l-52 -32z" />
    <glyph glyph-name="Icircumflex" unicode="&#xce;" horiz-adv-x="624" 
d="M30 1220q-2 14 -2 38v22h574v-22l-2 -38l-20 -2q-54 -6 -85 -90t-31 -218v-540q0 -134 31 -218t85 -90l20 -2q2 -14 2 -38v-22h-574v22l2 38l18 2q54 6 86 90t32 218v540q0 134 -32 218t-86 90zM100 1396l-30 24l158 324q11 27 34.5 53.5t53.5 26.5t54.5 -26.5
t37.5 -55.5q38 -84 77 -164.5t59 -119.5l20 -38l-28 -24q-126 140 -222 228q-94 -77 -214 -228z" />
    <glyph glyph-name="Idieresis" unicode="&#xcf;" horiz-adv-x="624" 
d="M28 22l2 38l18 2q54 6 86 90t32 218v540q0 134 -32 218t-86 90l-18 2q-2 14 -2 38v22h574v-22l-2 -38l-20 -2q-54 -6 -85 -90t-31 -218v-540q0 -134 31 -218t85 -90l20 -2q2 -14 2 -38v-22h-574v22zM376 1696q0 54 31 86t83 32q54 0 85 -32t31 -86q0 -56 -31 -88t-85 -32
q-53 0 -83.5 32.5t-30.5 87.5zM146 1576q-54 0 -84 32t-30 88q0 54 30 86t84 32t84 -32t30 -86q0 -56 -30 -88t-84 -32z" />
    <glyph glyph-name="Ntilde" unicode="&#xd1;" horiz-adv-x="1322" 
d="M8 1280h418l726 -826v456q0 134 -31 218t-85 90l-20 2q-2 14 -2 38v22h370v-22l-2 -38l-20 -2q-54 -6 -85 -90t-31 -218v-912h-124q-137 174 -441 503t-441 503v-634q0 -134 32 -218t86 -90l18 -2q2 -14 2 -38v-22h-368v60l20 2q53 6 84.5 90.5t31.5 217.5v540
q0 133 -31.5 217.5t-84.5 90.5l-20 2q-2 14 -2 38v22zM416 1522h-42q0 118 44.5 188t119.5 70q46 0 152.5 -55t153.5 -55q38 0 60 29.5t22 78.5h40q0 -126 -47.5 -202t-128.5 -76q-47 0 -153.5 56t-152.5 56q-31 0 -49.5 -24.5t-18.5 -65.5z" />
    <glyph glyph-name="Ograve" unicode="&#xd2;" horiz-adv-x="1392" 
d="M682 -10q-166 0 -299.5 51.5t-219.5 140.5t-131.5 206t-45.5 252q0 108 28.5 208.5t86.5 187.5t139.5 152t195 102.5t246.5 37.5q132 0 245 -37.5t194 -102.5t139 -152t86 -187.5t28 -208.5q0 -135 -45.5 -252t-130.5 -206t-218 -140.5t-298 -51.5zM310 640
q0 -156 45.5 -285t131.5 -206t195 -77q107 0 192.5 77t132.5 206.5t47 284.5q0 156 -46.5 295t-133 226t-192.5 87q-108 0 -194.5 -87.5t-132 -225.5t-45.5 -295zM486 1672q-5 26 46 85.5t86 66.5q18 4 120 -159t130 -223l-28 -30q-198 120 -276 186q-75 52 -78 74z" />
    <glyph glyph-name="Oacute" unicode="&#xd3;" horiz-adv-x="1392" 
d="M-14 640q0 108 28.5 208.5t86.5 187.5t139.5 152t195 102.5t246.5 37.5q132 0 245 -37.5t194 -102.5t139 -152t86 -187.5t28 -208.5q0 -135 -45.5 -252t-130.5 -206t-218 -140.5t-298 -51.5q-166 0 -299.5 51.5t-219.5 140.5t-131.5 206t-45.5 252zM310 640
q0 -156 45.5 -285t131.5 -206t195 -77q107 0 192.5 77t132.5 206.5t47 284.5q0 156 -46.5 295t-133 226t-192.5 87q-108 0 -194.5 -87.5t-132 -225.5t-45.5 -295zM504 1440q28 60 130 223t120 159q35 -7 85 -66.5t47 -85.5q-3 -22 -78 -74q-35 -29 -104 -75.5t-120 -78.5
l-52 -32z" />
    <glyph glyph-name="Ocircumflex" unicode="&#xd4;" horiz-adv-x="1392" 
d="M682 -10q-166 0 -299.5 51.5t-219.5 140.5t-131.5 206t-45.5 252q0 108 28.5 208.5t86.5 187.5t139.5 152t195 102.5t246.5 37.5q132 0 245 -37.5t194 -102.5t139 -152t86 -187.5t28 -208.5q0 -135 -45.5 -252t-130.5 -206t-218 -140.5t-298 -51.5zM310 640
q0 -156 45.5 -285t131.5 -206t195 -77q107 0 192.5 77t132.5 206.5t47 284.5q0 156 -46.5 295t-133 226t-192.5 87q-108 0 -194.5 -87.5t-132 -225.5t-45.5 -295zM436 1398l158 324q40 80 88 80q54 0 92 -82q39 -84 78.5 -164.5t59.5 -119.5l20 -38l-30 -24
q-126 140 -220 228q-93 -72 -216 -228z" />
    <glyph glyph-name="Otilde" unicode="&#xd5;" horiz-adv-x="1392" 
d="M-14 640q0 108 28.5 208.5t86.5 187.5t139.5 152t195 102.5t246.5 37.5q132 0 245 -37.5t194 -102.5t139 -152t86 -187.5t28 -208.5q0 -135 -45.5 -252t-130.5 -206t-218 -140.5t-298 -51.5q-166 0 -299.5 51.5t-219.5 140.5t-131.5 206t-45.5 252zM310 640
q0 -156 45.5 -285t131.5 -206t195 -77q107 0 192.5 77t132.5 206.5t47 284.5q0 156 -46.5 295t-133 226t-192.5 87q-108 0 -194.5 -87.5t-132 -225.5t-45.5 -295zM368 1514q0 118 44.5 188t119.5 70q46 0 153 -55t153 -55q38 0 60 29.5t22 78.5h40q0 -126 -47.5 -202
t-128.5 -76q-47 0 -153.5 56t-152.5 56q-31 0 -49.5 -24.5t-18.5 -65.5h-42z" />
    <glyph glyph-name="Odieresis" unicode="&#xd6;" horiz-adv-x="1392" 
d="M-14 640q0 108 28.5 208.5t86.5 187.5t139.5 152t195 102.5t246.5 37.5q132 0 245 -37.5t194 -102.5t139 -152t86 -187.5t28 -208.5q0 -135 -45.5 -252t-130.5 -206t-218 -140.5t-298 -51.5q-166 0 -299.5 51.5t-219.5 140.5t-131.5 206t-45.5 252zM682 1248
q-108 0 -194.5 -87.5t-132 -225.5t-45.5 -295q0 -156 45.5 -285t131.5 -206t195 -77q107 0 192.5 77t132.5 206.5t47 284.5q0 156 -46.5 295t-133 226t-192.5 87zM710 1656q0 54 30 86t84 32t85 -32t31 -86q0 -56 -31 -88t-85 -32t-84 32t-30 88zM480 1536q-54 0 -85 32
t-31 88q0 54 31 86t85 32t84 -32t30 -86q0 -56 -30 -88t-84 -32z" />
    <glyph glyph-name="multiply" unicode="&#xd7;" horiz-adv-x="950" 
d="M642 770l100 -102l-208 -212l202 -208l-90 -92l-202 208l-204 -212l-98 102l206 210l-202 208l88 92l202 -208z" />
    <glyph glyph-name="Oslash" unicode="&#xd8;" horiz-adv-x="1392" 
d="M-14 640q0 108 28.5 208.5t86.5 187.5t139.5 152t195 102.5t246.5 37.5q101 0 184 -20l82 234h126l-96 -270q189 -80 292.5 -252t103.5 -380q0 -135 -45.5 -252t-130.5 -206t-218 -140.5t-298 -51.5q-80 0 -152 12l-56 -156h-126l66 184q-205 67 -316.5 231.5
t-111.5 378.5zM310 640q0 -146 40.5 -269t113.5 -199l364 1028q-70 48 -146 48q-108 0 -194.5 -87.5t-132 -225.5t-45.5 -295zM564 98q58 -26 118 -26q107 0 192.5 77t132.5 206.5t47 284.5q0 134 -35.5 257.5t-98.5 208.5z" />
    <glyph glyph-name="Ugrave" unicode="&#xd9;" horiz-adv-x="1316" 
d="M-30 1220q-2 14 -2 38v22h590v-22l-2 -38l-18 -2q-54 -6 -85 -90t-31 -218v-534q0 -131 66 -201.5t214 -70.5q203 0 293.5 80t90.5 230l2 514q-6 128 -43 206t-97 84l-22 2q-2 14 -2 38v22h414q-2 -8 -2 -22v-38l-22 -2q-60 -6 -96 -95.5t-36 -232.5v-508
q0 -189 -124.5 -290.5t-401.5 -101.5q-148 0 -255 31.5t-171 91.5t-94 140.5t-30 186.5v470q0 134 -31 218t-85 90zM474 1656q-5 26 46 85.5t86 66.5q18 4 120 -159t130 -223l-28 -30q-198 120 -276 186q-72 50 -78 74z" />
    <glyph glyph-name="Uacute" unicode="&#xda;" horiz-adv-x="1316" 
d="M-32 1258v22h590v-22l-2 -38l-18 -2q-54 -6 -85 -90t-31 -218v-534q0 -131 66 -201.5t214 -70.5q203 0 293.5 80t90.5 230l2 514q-6 128 -43 206t-97 84l-22 2q-2 14 -2 38v22h414q-2 -8 -2 -22v-38l-22 -2q-60 -6 -96 -95.5t-36 -232.5v-508q0 -189 -124.5 -290.5
t-401.5 -101.5q-148 0 -255 31.5t-171 91.5t-94 140.5t-30 186.5v470q0 134 -31 218t-85 90l-20 2q-2 14 -2 38zM566 1426l-26 30q24 57 127 221.5t123 160.5q34 -7 84.5 -66.5t47.5 -85.5q-3 -20 -80 -74q-35 -29 -104 -75.5t-120 -78.5z" />
    <glyph glyph-name="Ucircumflex" unicode="&#xdb;" horiz-adv-x="1316" 
d="M-32 1258v22h590v-22l-2 -38l-18 -2q-54 -6 -85 -90t-31 -218v-534q0 -131 66 -201.5t214 -70.5q203 0 293.5 80t90.5 230l2 514q-6 128 -43 206t-97 84l-22 2q-2 14 -2 38v22h414q-2 -8 -2 -22v-38l-22 -2q-60 -6 -96 -95.5t-36 -232.5v-508q0 -189 -124.5 -290.5
t-401.5 -101.5q-148 0 -255 31.5t-171 91.5t-94 140.5t-30 186.5v470q0 134 -31 218t-85 90l-20 2q-2 14 -2 38zM454 1458l158 324q11 27 34.5 53.5t53.5 26.5q54 0 92 -82q38 -84 77 -164.5t59 -119.5l20 -38l-28 -24q-126 140 -222 228q-94 -77 -214 -228z" />
    <glyph glyph-name="Udieresis" unicode="&#xdc;" horiz-adv-x="1316" 
d="M-30 1220q-2 14 -2 38v22h590v-22l-2 -38l-18 -2q-54 -6 -85 -90t-31 -218v-534q0 -131 66 -201.5t214 -70.5q203 0 293.5 80t90.5 230l2 514q-6 128 -43 206t-97 84l-22 2q-2 14 -2 38v22h414q-2 -8 -2 -22v-38l-22 -2q-60 -6 -96 -95.5t-36 -232.5v-508
q0 -189 -124.5 -290.5t-401.5 -101.5q-148 0 -255 31.5t-171 91.5t-94 140.5t-30 186.5v470q0 134 -31 218t-85 90zM750 1686q0 54 31 86t85 32t84 -32t30 -86q0 -56 -30 -88t-84 -32t-85 32t-31 88zM520 1566q-54 0 -84 32t-30 88q0 54 30 86t84 32t84 -32t30 -86
q0 -56 -30 -88t-84 -32z" />
    <glyph glyph-name="Yacute" unicode="&#xdd;" horiz-adv-x="1392" 
d="M16 1220v60h602v-22q0 -35 -2 -37t-14 -3q-53 -5 -10 -119q29 -79 100 -189q22 -34 63.5 -98t54.5 -84l130 180q132 191 126 272q-3 35 -36 38l-22 2q-2 14 -2 38v22h370v-60l-20 -2q-50 -4 -138 -88t-190 -220l-182 -244v-296q0 -134 31 -218t85 -90l20 -2q2 -14 2 -38
v-22h-588v22l2 38l20 2q49 4 79.5 75.5t36.5 188.5l-2 252l-216 332q-88 136 -164 220t-118 88zM704 1432q28 60 130 223t120 159q35 -7 85 -66.5t47 -85.5q-3 -23 -80 -74q-34 -29 -102.5 -75.5t-119.5 -78.5l-52 -32z" />
    <glyph glyph-name="germandbls" unicode="&#xdf;" horiz-adv-x="1230" 
d="M14 22l2 38l18 2q54 6 86 90t32 218q0 51 -3 159q-9 104 -3.5 211t15.5 206.5t54 186.5t112 151t189.5 99t285.5 31q150 0 239 -71t89 -191q0 -77 -68 -144t-210 -146q150 -26 235 -108t85 -204q0 -163 -148.5 -270t-385.5 -108l-10 78q118 21 182 93t64 191
q0 106 -67.5 160t-164.5 54q-51 0 -102 -16v48q41 15 77 32t79.5 43.5t74.5 55t52 67.5t21 80q0 48 -19.5 107t-62 107t-94.5 48q-59 0 -102 -20t-68.5 -51.5t-40.5 -79t-20 -93.5t-5 -104v-602q0 -134 32 -218t86 -90l18 -2q2 -14 2 -38v-22h-556v22z" />
    <glyph glyph-name="agrave" unicode="&#xe0;" horiz-adv-x="976" 
d="M6 226q0 67 36.5 119t89.5 81.5t126 49.5t131.5 27.5t120.5 10.5v156q0 77 -19 122.5t-53 45.5q-64 0 -95 -65.5t-17 -170.5q-82 -22 -138 -22q-55 0 -146 22q-18 142 112 232.5t348 83.5q141 -5 224.5 -88.5t83.5 -225.5v-346q0 -71 16 -106.5t60 -35.5q61 0 84 42
l32 -38q-41 -72 -111 -108t-197 -36q-59 0 -102.5 26t-61.5 72q-136 -88 -276 -88q-109 0 -178.5 71.5t-69.5 168.5zM290 272q0 -66 41 -105t97 -39q46 0 84 26l-2 304q-91 0 -155.5 -46.5t-64.5 -139.5zM298 1242q-5 26 45.5 85.5t84.5 66.5q20 4 122 -158.5t130 -223.5
l-28 -30q-198 120 -276 186q-75 52 -78 74z" />
    <glyph glyph-name="aacute" unicode="&#xe1;" horiz-adv-x="976" 
d="M254 -14q-109 0 -178.5 71.5t-69.5 168.5q0 67 36.5 119t89.5 81.5t126 49.5t131.5 27.5t120.5 10.5v156q0 77 -19 122.5t-53 45.5q-64 0 -95 -65.5t-17 -170.5q-82 -22 -138 -22q-55 0 -146 22q-18 142 112 232.5t348 83.5q141 -5 224.5 -88.5t83.5 -225.5v-346
q0 -71 16 -106.5t60 -35.5q61 0 84 42l32 -38q-41 -72 -111 -108t-197 -36q-59 0 -102.5 26t-61.5 72q-136 -88 -276 -88zM290 272q0 -66 41 -105t97 -39q46 0 84 26l-2 304q-91 0 -155.5 -46.5t-64.5 -139.5zM296 1012q28 61 130 223.5t122 158.5q34 -7 83.5 -66.5
t46.5 -85.5q-3 -22 -78 -74q-35 -29 -104 -75.5t-120 -78.5l-52 -32z" />
    <glyph glyph-name="acircumflex" unicode="&#xe2;" horiz-adv-x="976" 
d="M6 226q0 67 36.5 119t89.5 81.5t126 49.5t131.5 27.5t120.5 10.5v156q0 77 -19 122.5t-53 45.5q-64 0 -95 -65.5t-17 -170.5q-82 -22 -138 -22q-55 0 -146 22q-18 142 112 232.5t348 83.5q141 -5 224.5 -88.5t83.5 -225.5v-346q0 -71 16 -106.5t60 -35.5q61 0 84 42
l32 -38q-41 -72 -111 -108t-197 -36q-59 0 -102.5 26t-61.5 72q-136 -88 -276 -88q-109 0 -178.5 71.5t-69.5 168.5zM240 996l158 324q40 80 90 80q52 0 90 -82q39 -84 78.5 -164.5t59.5 -119.5l20 -38l-30 -24q-126 140 -220 228q-93 -72 -216 -228zM510 458
q-91 0 -155.5 -46.5t-64.5 -139.5q0 -66 41 -105t97 -39q46 0 84 26z" />
    <glyph glyph-name="atilde" unicode="&#xe3;" horiz-adv-x="976" 
d="M6 226q0 67 36.5 119t89.5 81.5t126 49.5t131.5 27.5t120.5 10.5v156q0 77 -19 122.5t-53 45.5q-64 0 -95 -65.5t-17 -170.5q-82 -22 -138 -22q-55 0 -146 22q-18 142 112 232.5t348 83.5q141 -5 224.5 -88.5t83.5 -225.5v-346q0 -71 16 -106.5t60 -35.5q61 0 84 42
l32 -38q-41 -72 -111 -108t-197 -36q-59 0 -102.5 26t-61.5 72q-136 -88 -276 -88q-109 0 -178.5 71.5t-69.5 168.5zM172 1056q0 118 44.5 188t119.5 70q46 0 153 -55t153 -55q38 0 60 29.5t22 78.5h40q0 -126 -47.5 -202t-128.5 -76q-47 0 -153.5 56t-152.5 56
q-31 0 -49.5 -24.5t-18.5 -65.5h-42zM290 272q0 -66 41 -105t97 -39q46 0 84 26l-2 304q-91 0 -155.5 -46.5t-64.5 -139.5z" />
    <glyph glyph-name="adieresis" unicode="&#xe4;" horiz-adv-x="976" 
d="M254 -14q-109 0 -178.5 71.5t-69.5 168.5q0 67 36.5 119t89.5 81.5t126 49.5t131.5 27.5t120.5 10.5v156q0 77 -19 122.5t-53 45.5q-64 0 -95 -65.5t-17 -170.5q-82 -22 -138 -22q-55 0 -146 22q-18 142 112 232.5t348 83.5q141 -5 224.5 -88.5t83.5 -225.5v-346
q0 -71 16 -106.5t60 -35.5q61 0 84 42l32 -38q-41 -72 -111 -108t-197 -36q-59 0 -102.5 26t-61.5 72q-136 -88 -276 -88zM510 458q-91 0 -155.5 -46.5t-64.5 -139.5q0 -66 41 -105t97 -39q46 0 84 26zM660 1074q-54 0 -84 32t-30 88q0 54 30 86t84 32t85 -32t31 -86
q0 -56 -31 -88t-85 -32zM200 1194q0 54 31 86t85 32t84 -32t30 -86q0 -56 -30 -88t-84 -32t-85 32t-31 88z" />
    <glyph glyph-name="aring" unicode="&#xe5;" horiz-adv-x="976" 
d="M6 226q0 67 36.5 119t89.5 81.5t126 49.5t131.5 27.5t120.5 10.5v156q0 77 -19 122.5t-53 45.5q-64 0 -95 -65.5t-17 -170.5q-82 -22 -138 -22q-55 0 -146 22q-18 142 112 232.5t348 83.5q141 -5 224.5 -88.5t83.5 -225.5v-346q0 -71 16 -106.5t60 -35.5q61 0 84 42
l32 -38q-41 -72 -111 -108t-197 -36q-59 0 -102.5 26t-61.5 72q-136 -88 -276 -88q-109 0 -178.5 71.5t-69.5 168.5zM488 982q-78 0 -133 54t-55 130q0 86 50.5 136t137.5 50q86 0 137 -50.5t51 -135.5q0 -76 -55.5 -130t-132.5 -54zM510 458q-91 0 -155.5 -46.5
t-64.5 -139.5q0 -66 41 -105t97 -39q46 0 84 26zM488 1286q-50 0 -80 -32.5t-30 -87.5q0 -50 32 -85t78 -35q45 0 77.5 35.5t32.5 84.5q0 55 -30 87.5t-80 32.5z" />
    <glyph glyph-name="ae" unicode="&#xe6;" horiz-adv-x="1486" 
d="M38 226q0 50 20.5 91.5t52.5 70t78.5 51t92.5 35.5t99 22t94 13t83 5q2 20 10 50q8 141 -7 195q-22 78 -89 79q-65 0 -95.5 -65t-18.5 -171q-82 -22 -138 -22q-53 0 -144 22q-20 141 110 230.5t350 85.5q134 -3 214 -80q124 84 296 84q187 0 298.5 -127.5t111.5 -340.5
l-600 -10q10 -70 34.5 -125t67 -98t109.5 -63.5t155 -13.5q43 3 96 41t100 107l32 -28q-37 -71 -92.5 -126t-117 -86t-121.5 -46.5t-115 -15.5q-177 0 -300 88q-56 -41 -150 -66.5t-192 -25.5q-65 0 -121 13t-102.5 40.5t-73.5 75t-27 111.5zM1030 840q-84 0 -133.5 -91.5
t-46.5 -240.5h232q88 4 116 80q27 69 -10 147q-38 81 -117 100q-20 5 -41 5zM552 458q-60 1 -110 -16t-85 -61t-35 -109q0 -58 46 -88t112 -30q73 0 126 34v2q-56 96 -56 220q0 32 2 48z" />
    <glyph glyph-name="ccedilla" unicode="&#xe7;" horiz-adv-x="952" 
d="M392 -2q-164 26 -259 135.5t-95 276.5q0 234 143.5 373t386.5 139q159 0 259 -54.5t107 -147.5q0 -58 -34 -93t-90 -35q-60 0 -98 39t-44 105q-4 48 -39 76t-91 28q-92 0 -146 -86.5t-54 -231.5q0 -83 22.5 -153.5t67 -124.5t117.5 -81t167 -19q45 4 103.5 42.5
t88.5 105.5l32 -28q-63 -129 -193 -201.5t-279 -72.5q-61 -28 -148 -130q65 36 120 36q91 0 145.5 -45.5t54.5 -122.5t-71.5 -122.5t-194.5 -45.5q-45 0 -93.5 24t-82.5 64l20 26q27 -30 98 -30t111.5 22.5t40.5 61.5q0 55 -26 81.5t-68 26.5q-47 0 -94 -28l-18 14
q129 168 134 176z" />
    <glyph glyph-name="egrave" unicode="&#xe8;" horiz-adv-x="960" 
d="M482 -10q-208 0 -331 114t-123 306q0 234 134 373t360 139q188 0 300 -127.5t112 -340.5l-602 -10q51 -323 366 -300q43 3 96 41t100 107l32 -28q-37 -71 -92.5 -126t-116.5 -86t-121 -46.5t-114 -15.5zM506 840q-84 0 -133.5 -91.5t-46.5 -240.5h232q88 4 116 80
q27 69 -10 147q-38 81 -117 100q-20 5 -41 5zM166 1252q-3 26 47.5 85.5t84.5 66.5q20 4 122 -158.5t130 -223.5l-28 -30q-198 120 -276 186q-74 52 -80 74z" />
    <glyph glyph-name="eacute" unicode="&#xe9;" horiz-adv-x="960" 
d="M28 410q0 234 134 373t360 139q188 0 300 -127.5t112 -340.5l-602 -10q51 -323 366 -300q43 3 96 41t100 107l32 -28q-37 -71 -92.5 -126t-116.5 -86t-121 -46.5t-114 -15.5q-208 0 -331 114t-123 306zM506 840q-84 0 -133.5 -91.5t-46.5 -240.5h232q88 4 116 80
q27 69 -10 147q-38 81 -117 100q-20 5 -41 5zM414 992l-28 30q28 60 130 223t120 159q34 -7 84.5 -66.5t47.5 -85.5q-3 -23 -80 -74q-34 -29 -102.5 -75.5t-119.5 -78.5z" />
    <glyph glyph-name="ecircumflex" unicode="&#xea;" horiz-adv-x="960" 
d="M482 -10q-208 0 -331 114t-123 306q0 234 134 373t360 139q188 0 300 -127.5t112 -340.5l-602 -10q51 -323 366 -300q43 3 96 41t100 107l32 -28q-37 -71 -92.5 -126t-116.5 -86t-121 -46.5t-114 -15.5zM506 840q-84 0 -133.5 -91.5t-46.5 -240.5h232q88 4 116 80
q27 69 -10 147q-38 81 -117 100q-20 5 -41 5zM232 996l158 324q40 80 90 80q52 0 90 -82q39 -84 78.5 -164.5t59.5 -119.5l20 -38l-30 -24q-126 140 -220 228q-93 -72 -216 -228z" />
    <glyph glyph-name="edieresis" unicode="&#xeb;" horiz-adv-x="960" 
d="M28 410q0 234 134 373t360 139q188 0 300 -127.5t112 -340.5l-602 -10q51 -323 366 -300q43 3 96 41t100 107l32 -28q-37 -71 -92.5 -126t-116.5 -86t-121 -46.5t-114 -15.5q-208 0 -331 114t-123 306zM506 840q-84 0 -133.5 -91.5t-46.5 -240.5h232q88 4 116 80
q27 69 -10 147q-38 81 -117 100q-20 5 -41 5zM652 1074q-53 0 -83.5 32.5t-30.5 87.5q0 54 31 86t83 32q54 0 85 -32t31 -86q0 -56 -31 -88t-85 -32zM194 1194q0 54 30 86t84 32t84 -32t30 -86q0 -56 -30 -88t-84 -32t-84 32t-30 88z" />
    <glyph glyph-name="igrave" unicode="&#xec;" horiz-adv-x="614" 
d="M28 764l364 148h56v-542q0 -134 31 -218t85 -90l20 -2q2 -14 2 -38v-22h-558v22l2 38l18 2q56 6 87 94t31 226q0 129 -10 193t-33 97t-75 62l-18 10q-2 10 -2 20zM116 1242q-5 26 46.5 85.5t85.5 66.5q18 4 120 -159t130 -223l-28 -30q-198 120 -274 186q-74 49 -80 74z
" />
    <glyph glyph-name="iacute" unicode="&#xed;" horiz-adv-x="614" 
d="M28 764l364 148h56v-542q0 -134 31 -218t85 -90l20 -2q2 -14 2 -38v-22h-558v22l2 38l18 2q56 6 87 94t31 226q0 129 -10 193t-33 97t-75 62l-18 10q-2 10 -2 20zM116 1012q24 57 127 221.5t123 160.5q34 -7 84.5 -66.5t47.5 -85.5q-3 -20 -80 -74q-35 -29 -104 -75.5
t-120 -78.5l-52 -32z" />
    <glyph glyph-name="icircumflex" unicode="&#xee;" horiz-adv-x="614" 
d="M28 0v22l2 38l18 2q56 6 87 94t31 226q0 129 -10 193t-33 97t-75 62l-18 10q-2 10 -2 20l364 148h56v-542q0 -134 31 -218t85 -90l20 -2q2 -14 2 -38v-22h-558zM88 972l-28 24l156 324q40 80 90 80q30 0 54.5 -27.5t35.5 -54.5l158 -322l-30 -24q-126 140 -220 228
q-93 -76 -216 -228z" />
    <glyph glyph-name="idieresis" unicode="&#xef;" horiz-adv-x="614" 
d="M28 764l364 148h56v-542q0 -134 31 -218t85 -90l20 -2q2 -14 2 -38v-22h-558v22l2 38l18 2q56 6 87 94t31 226q0 129 -10 193t-33 97t-75 62l-18 10q-2 10 -2 20zM364 1194q0 54 31 86t85 32t84 -32t30 -86q0 -56 -30 -88t-84 -32t-85 32t-31 88zM134 1074q-54 0 -84 32
t-30 88q0 54 30 86t84 32t84 -32t30 -86q0 -56 -30 -88t-84 -32z" />
    <glyph glyph-name="ntilde" unicode="&#xf1;" horiz-adv-x="1116" 
d="M10 0v22l2 38l20 2q54 6 85 94.5t31 227.5q0 129 -9 192.5t-32.5 97.5t-74.5 60l-20 10q-2 8 -2 20l362 148h56v-138q43 60 135 104t205 44q216 0 216 -308v-244q0 -134 31 -218t85 -90l20 -2q2 -14 2 -38v-22h-542v60l12 2q53 9 81.5 90.5t28.5 217.5v214
q0 81 -37 147.5t-95 66.5q-67 0 -142 -106v-322q0 -134 31 -218t85 -90l16 -2v-60h-550zM284 1056h-42q0 118 44.5 188t119.5 70q46 0 152.5 -55t153.5 -55q38 0 60 29.5t22 78.5h40q0 -126 -47.5 -202t-128.5 -76q-47 0 -153.5 56t-152.5 56q-31 0 -49.5 -24.5t-18.5 -65.5
z" />
    <glyph glyph-name="ograve" unicode="&#xf2;" horiz-adv-x="1112" 
d="M544 -10q-232 0 -369 126.5t-137 339.5t137 339.5t369 126.5q229 0 365.5 -126.5t136.5 -339.5t-136.5 -339.5t-365.5 -126.5zM346 456q0 -183 54 -291.5t144 -108.5t144 108.5t54 291.5t-54 291.5t-144 108.5t-144 -108.5t-54 -291.5zM364 1242q-3 26 47.5 85.5
t84.5 66.5q20 4 122 -158.5t130 -223.5l-28 -30q-198 120 -276 186q-74 52 -80 74z" />
    <glyph glyph-name="oacute" unicode="&#xf3;" horiz-adv-x="1112" 
d="M38 456q0 213 137 339.5t369 126.5q229 0 365.5 -126.5t136.5 -339.5t-136.5 -339.5t-365.5 -126.5q-232 0 -369 126.5t-137 339.5zM346 456q0 -183 54 -291.5t144 -108.5t144 108.5t54 291.5t-54 291.5t-144 108.5t-144 -108.5t-54 -291.5zM364 1012q28 60 130 223
t120 159q35 -7 85 -66.5t47 -85.5q-3 -22 -78 -74q-35 -29 -104 -75.5t-120 -78.5l-52 -32z" />
    <glyph glyph-name="ocircumflex" unicode="&#xf4;" horiz-adv-x="1112" 
d="M544 -10q-232 0 -369 126.5t-137 339.5t137 339.5t369 126.5q229 0 365.5 -126.5t136.5 -339.5t-136.5 -339.5t-365.5 -126.5zM544 856q-90 0 -144 -108.5t-54 -291.5t54 -291.5t144 -108.5t144 108.5t54 291.5t-54 291.5t-144 108.5zM338 972l-30 24l158 324
q40 80 88 80q54 0 92 -82q39 -84 78.5 -164.5t59.5 -119.5l20 -38l-30 -24q-126 140 -220 228q-93 -72 -216 -228z" />
    <glyph glyph-name="otilde" unicode="&#xf5;" horiz-adv-x="1112" 
d="M38 456q0 213 137 339.5t369 126.5q229 0 365.5 -126.5t136.5 -339.5t-136.5 -339.5t-365.5 -126.5q-232 0 -369 126.5t-137 339.5zM346 456q0 -183 54 -291.5t144 -108.5t144 108.5t54 291.5t-54 291.5t-144 108.5t-144 -108.5t-54 -291.5zM300 1056h-40q0 118 44.5 188
t119.5 70q46 0 152.5 -55t153.5 -55q38 0 60 29.5t22 78.5h40q0 -126 -47.5 -202t-128.5 -76q-47 0 -154 56t-154 56q-30 0 -49 -25t-19 -65z" />
    <glyph glyph-name="odieresis" unicode="&#xf6;" horiz-adv-x="1112" 
d="M544 -10q-232 0 -369 126.5t-137 339.5t137 339.5t369 126.5q229 0 365.5 -126.5t136.5 -339.5t-136.5 -339.5t-365.5 -126.5zM346 456q0 -183 54 -291.5t144 -108.5t144 108.5t54 291.5t-54 291.5t-144 108.5t-144 -108.5t-54 -291.5zM614 1194q0 54 30 86t84 32t85 -32
t31 -86q0 -56 -31 -88t-85 -32t-84 32t-30 88zM384 1074q-54 0 -85 32t-31 88q0 54 31 86t85 32t84 -32t30 -86q0 -56 -30 -88t-84 -32z" />
    <glyph glyph-name="oslash" unicode="&#xf8;" horiz-adv-x="1112" 
d="M244 66q-100 59 -153 159t-53 231q0 213 137 339.5t369 126.5q90 0 172 -22l74 130h140l-100 -176q103 -59 159.5 -161.5t56.5 -236.5q0 -213 -136.5 -339.5t-365.5 -126.5q-107 0 -188 26l-90 -158h-140zM720 658l-300 -528q49 -74 124 -74q90 0 144 108.5t54 291.5
q0 114 -22 202zM362 276l296 520q-51 60 -114 60q-90 0 -144 -108.5t-54 -291.5q0 -97 16 -180z" />
    <glyph glyph-name="ugrave" unicode="&#xf9;" horiz-adv-x="1056" 
d="M-30 852q-2 14 -2 38v22h420v-576q0 -72 49 -113t143 -41q39 0 74 38v308q2 137 -29.5 226.5t-86.5 95.5l-20 2q-2 14 -2 38v22h420v-384q0 -129 9 -191.5t32 -96.5t75 -62l18 -10q2 -8 2 -20l-362 -148h-56v164q-135 -174 -294 -174q-125 0 -189.5 84t-64.5 232v236
q0 134 -31 218t-85 90zM336 1242q-3 26 47.5 85.5t84.5 66.5q20 4 122 -158.5t130 -223.5l-28 -30q-198 120 -276 186q-74 52 -80 74z" />
    <glyph glyph-name="uacute" unicode="&#xfa;" horiz-adv-x="1056" 
d="M-32 912h420v-576q0 -72 49 -113t143 -41q39 0 74 38v308q2 137 -29.5 226.5t-86.5 95.5l-20 2q-2 14 -2 38v22h420v-384q0 -129 9 -191.5t32 -96.5t75 -62l18 -10q2 -8 2 -20l-362 -148h-56v164q-135 -174 -294 -174q-125 0 -189.5 84t-64.5 232v236q0 134 -31 218
t-85 90l-20 2q-2 14 -2 38v22zM336 1012q28 60 130 223t120 159q35 -7 85 -66.5t47 -85.5q-3 -22 -78 -74q-35 -29 -104 -75.5t-120 -78.5l-52 -32z" />
    <glyph glyph-name="ucircumflex" unicode="&#xfb;" horiz-adv-x="1056" 
d="M-32 890v22h420v-576q0 -72 49 -113t143 -41q39 0 74 38v308q2 137 -29.5 226.5t-86.5 95.5l-20 2q-2 14 -2 38v22h420v-384q0 -129 9 -191.5t32 -96.5t75 -62l18 -10q2 -8 2 -20l-362 -148h-56v164q-135 -174 -294 -174q-125 0 -189.5 84t-64.5 232v236q0 134 -31 218
t-85 90l-20 2q-2 14 -2 38zM280 996l158 324q40 80 88 80q54 0 92 -82q39 -84 78.5 -164.5t59.5 -119.5l20 -38l-30 -24q-126 140 -222 228q-94 -77 -214 -228z" />
    <glyph glyph-name="udieresis" unicode="&#xfc;" horiz-adv-x="1056" 
d="M-32 912h420v-576q0 -72 49 -113t143 -41q39 0 74 38v308q2 137 -29.5 226.5t-86.5 95.5l-20 2q-2 14 -2 38v22h420v-384q0 -129 9 -191.5t32 -96.5t75 -62l18 -10q2 -8 2 -20l-362 -148h-56v164q-135 -174 -294 -174q-125 0 -189.5 84t-64.5 232v236q0 134 -31 218
t-85 90l-20 2q-2 14 -2 38v22zM240 1194q0 54 31 86t85 32q52 0 83 -32t31 -86q0 -55 -30.5 -87.5t-83.5 -32.5q-54 0 -85 32t-31 88zM586 1194q0 54 30 86t84 32t84 -32t30 -86q0 -56 -30 -88t-84 -32t-84 32t-30 88z" />
    <glyph glyph-name="yacute" unicode="&#xfd;" horiz-adv-x="1032" 
d="M-86 912h566v-22v-11t0.5 -9t0 -6.5t-0.5 -5t-1 -3.5t-2 -2.5t-3 -1l-4 -1t-6 -0.5q-23 -7 -22.5 -44.5t27.5 -106.5t75 -157q19 -34 40 -73t46.5 -87t39.5 -74l106 234q61 135 73.5 217t-27.5 91q-4 1 -5 1t-4 1t-3 1.5t-1.5 2.5t-1 3t0 4.5t0 6.5t0.5 9v11v22h336v-60
l-20 -2q-56 -6 -130 -90t-142 -218l-286 -562q-16 -30 -39.5 -79t-39.5 -83.5t-41.5 -79.5t-48.5 -76t-56.5 -64t-69 -52.5t-83.5 -32.5t-102 -13q-75 0 -119.5 32.5t-44.5 87.5q0 56 39 89t105 33q26 0 74 -13t83 -26l35 -13q97 2 238 334l-278 518q-71 134 -148.5 219
t-133.5 89l-22 2v60zM590 966l-28 30q28 60 130 223t120 159q35 -7 85 -66.5t47 -85.5q-3 -22 -78 -74q-35 -29 -104 -75.5t-120 -78.5z" />
    <glyph glyph-name="ydieresis" unicode="&#xff;" horiz-adv-x="1032" 
d="M-86 852v60h566v-22v-11t0.5 -9t0 -6.5t-0.5 -5t-1 -3.5t-2 -2.5t-3 -1l-4 -1t-6 -0.5q-23 -7 -22.5 -44.5t27.5 -106.5t75 -157q19 -34 40 -73t46.5 -87t39.5 -74l106 234q61 135 73.5 217t-27.5 91q-4 1 -5 1t-4 1t-3 1.5t-1.5 2.5t-1 3t0 4.5t0 6.5t0.5 9v11v22h336
v-60l-20 -2q-56 -6 -130 -90t-142 -218l-286 -562q-16 -30 -39.5 -79t-39.5 -83.5t-41.5 -79.5t-48.5 -76t-56.5 -64t-69 -52.5t-83.5 -32.5t-102 -13q-75 0 -119.5 32.5t-44.5 87.5q0 56 39 89t105 33q26 0 74 -13t83 -26l35 -13q97 2 238 334l-278 518q-71 134 -148.5 219
t-133.5 89zM688 1074q-53 0 -83.5 32.5t-30.5 87.5q0 54 31 86t83 32q54 0 85 -32t31 -86q0 -56 -31 -88t-85 -32zM344 1074q-54 0 -84 32t-30 88q0 54 30 86t84 32t84 -32t30 -86q0 -56 -30 -88t-84 -32z" />
    <glyph glyph-name="dotlessi" unicode="&#x131;" horiz-adv-x="614" 
d="M28 764l364 148h56v-542q0 -134 31 -218t85 -90l20 -2q2 -14 2 -38v-22h-558v22l2 38l18 2q56 6 87 94t31 226q0 129 -10 193t-33 97t-75 62l-18 10q-2 10 -2 20z" />
    <glyph glyph-name="OE" unicode="&#x152;" horiz-adv-x="2134" 
d="M732 -10q-166 0 -296.5 51t-212.5 140.5t-124.5 206t-42.5 252.5t42.5 252.5t124.5 206t212.5 140.5t296.5 51q32 0 48 -2l-6 2l1260 -10l2 -40q2 -45 6 -148t6 -148l-22 2l-22 38q-57 98 -185 157t-287 59h-124v-518q147 6 257 37.5t153 80.5l18 20q22 2 46 2v-384
l-46 2l-18 24q-41 56 -151.5 91t-258.5 43v-518h124q160 0 297 59t209 157l28 38q10 2 24 2q-8 -36 -60 -296l-8 -40l-1256 -10h4h-38zM400 640q0 -160 35.5 -286t112 -204t184.5 -78q71 0 125 14.5t102.5 51t82.5 104t52 166.5v464q-36 171 -132 254.5t-230 83.5
q-108 0 -184.5 -78.5t-112 -205t-35.5 -286.5z" />
    <glyph glyph-name="oe" unicode="&#x153;" horiz-adv-x="1684" 
d="M544 -10q-238 0 -378 126.5t-140 339.5t140 339.5t378 126.5q224 0 362 -116q135 116 338 116q187 0 298.5 -127.5t111.5 -340.5l-594 -10q0 -18 -2 -28q13 -64 38.5 -114.5t67.5 -89.5t107 -57t149 -11q43 3 96 41t100 107l32 -28q-37 -71 -92.5 -126t-117 -86
t-121.5 -46.5t-115 -15.5q-192 0 -314 100q-138 -100 -344 -100zM340 456q0 -183 55.5 -291.5t148.5 -108.5t147.5 108.5t54.5 291.5t-54.5 291.5t-147.5 108.5t-148.5 -108.5t-55.5 -291.5zM1050 566q1 -8 4 -27.5t4 -30.5h222q88 4 116 80q27 69 -10 147q-38 81 -117 100
q-20 5 -41 5q-75 0 -123.5 -74.5t-54.5 -199.5z" />
    <glyph glyph-name="Scaron" unicode="&#x160;" horiz-adv-x="1006" 
d="M14 108l-18 320h30q6 -11 21 -38t21 -38q71 -132 178 -216t208 -84q126 0 204 59t78 145q0 70 -103.5 140t-278.5 118q-158 44 -253 140.5t-95 215.5q0 192 141.5 306t378.5 114q100 0 203 -32t165 -84l18 -320h-30q-22 77 -75.5 157.5t-134.5 140t-162 58.5
q-121 -2 -193.5 -58.5t-72.5 -151.5q0 -60 102.5 -123.5t273.5 -110.5q164 -45 262 -147.5t98 -230.5q0 -184 -144.5 -301t-381.5 -117q-131 0 -251 40t-189 98zM280 1816l28 24q123 -152 216 -228q42 39 97.5 96t90.5 94l34 38l28 -24q-70 -134 -156 -322
q-13 -29 -37.5 -55.5t-54.5 -26.5q-50 0 -90 80z" />
    <glyph glyph-name="scaron" unicode="&#x161;" horiz-adv-x="784" 
d="M36 310q2 0 9.5 -1t14.5 -1q36 -99 114.5 -180.5t177.5 -81.5q72 0 115 37.5t43 100.5q0 42 -45.5 85t-122.5 73q-133 52 -215.5 135.5t-82.5 162.5q0 132 114.5 217t305.5 85q72 0 154.5 -26t125.5 -74l-8 -220h-30q-3 5 -16 31t-17.5 34.5t-17.5 32.5t-20 34t-21 30.5
t-24 29.5t-25 23t-28.5 20.5t-30.5 12t-34 6.5q-84 4 -138 -38t-56 -98q0 -17 7.5 -32t27 -30.5t39 -28t57 -29.5t66.5 -29t81 -33q93 -37 148.5 -111.5t55.5 -156.5q0 -142 -115.5 -226t-312.5 -84q-82 0 -159 24.5t-127 65.5zM144 1428l30 24q123 -156 216 -228
q42 39 97 96t89 94l34 38l30 -24q-70 -132 -158 -322q-38 -82 -90 -82q-50 0 -90 80z" />
    <glyph glyph-name="Ydieresis" unicode="&#x178;" horiz-adv-x="1392" 
d="M16 1220v60h602v-22q0 -35 -2 -37t-14 -3q-53 -5 -10 -119q29 -79 100 -189q22 -34 63.5 -98t54.5 -84l130 180q132 191 126 272q-3 35 -36 38l-22 2q-2 14 -2 38v22h370v-60l-20 -2q-50 -4 -138 -88t-190 -220l-182 -244v-296q0 -134 31 -218t85 -90l20 -2q2 -14 2 -38
v-22h-588v22l2 38l20 2q49 4 79.5 75.5t36.5 188.5l-2 252l-216 332q-88 136 -164 220t-118 88zM824 1618q0 54 31 86t85 32q52 0 83 -32t31 -86q0 -55 -30.5 -87.5t-83.5 -32.5q-54 0 -85 32t-31 88zM480 1618q0 54 30 86t84 32t84 -32t30 -86q0 -56 -30 -88t-84 -32
t-84 32t-30 88z" />
    <glyph glyph-name="Zcaron" unicode="&#x17d;" horiz-adv-x="1066" 
d="M-44 972q12 41 41 134t41 134l12 40h956l-624 -1196h78q150 0 279 65.5t197 174.5l26 42q20 -6 38 -12q-35 -168 -62 -312l-10 -42h-942l622 1200h-108q-144 0 -277.5 -51.5t-212.5 -140.5l-30 -34q-12 -2 -24 -2zM334 1828l28 24q123 -152 216 -228q43 39 98.5 96
t89.5 94l34 38l28 -24q-70 -134 -156 -322q-13 -29 -37.5 -55.5t-54.5 -26.5q-50 0 -90 80z" />
    <glyph glyph-name="zcaron" unicode="&#x17e;" horiz-adv-x="856" 
d="M14 676q-12 -2 -26 -2q48 148 64 204l10 34h754l-448 -840q126 18 229.5 80t156.5 154l28 42q20 -6 36 -12q-15 -84 -62 -302h2l-8 -34h-754l456 842q-127 -8 -237.5 -45.5t-174.5 -96.5zM180 1428l30 24q120 -151 214 -228q43 39 98.5 96t89.5 94l34 38l30 -24
q-70 -132 -158 -322q-38 -82 -92 -82q-48 0 -88 80z" />
    <glyph glyph-name="circumflex" unicode="&#x2c6;" 
d="M76 972l-30 24l158 324q40 80 90 80q52 0 90 -82q39 -84 78.5 -164.5t59.5 -119.5l20 -38l-30 -24q-126 140 -220 228q-93 -72 -216 -228z" />
    <glyph glyph-name="caron" unicode="&#x2c7;" 
d="M204 1104l-158 324l30 24q123 -156 216 -228q42 39 97 96t89 94l34 38l30 -24q-70 -132 -158 -322q-38 -82 -90 -82q-50 0 -90 80z" />
    <glyph glyph-name="breve" unicode="&#x2d8;" 
d="M4 1330l44 24q33 -59 99 -93.5t145 -34.5q82 0 148.5 34.5t99.5 93.5l42 -26q-72 -135 -151 -215.5t-139 -80.5q-57 0 -136 81t-152 217z" />
    <glyph glyph-name="dotaccent" unicode="&#x2d9;" 
d="M138 1212q0 73 41.5 116.5t112.5 43.5q72 0 114 -43t42 -117t-42 -117t-114 -43q-71 0 -112.5 43.5t-41.5 116.5z" />
    <glyph glyph-name="ring" unicode="&#x2da;" 
d="M294 982q-78 0 -133 54t-55 130q0 86 50.5 136t137.5 50q86 0 137 -50.5t51 -135.5q0 -76 -55.5 -130t-132.5 -54zM184 1166q0 -50 32 -85t78 -35q45 0 77.5 35.5t32.5 84.5q0 55 -30 87.5t-80 32.5t-80 -32.5t-30 -87.5z" />
    <glyph glyph-name="tilde" unicode="&#x2dc;" horiz-adv-x="930" 
d="M246 1056h-40q0 118 44 188t118 70q47 0 154 -55t154 -55q37 0 58.5 29t21.5 79h42q0 -127 -48 -202.5t-130 -75.5q-46 0 -152.5 56t-153.5 56q-30 0 -49 -25t-19 -65z" />
    <glyph glyph-name="pi" unicode="&#x3c0;" horiz-adv-x="1322" 
d="M8 1280h418l648 -826v456q0 134 -31 218t-85 90l-20 2v60h368v-22l-2 -38l-20 -2q-54 -6 -85 -90t-31 -218v-912h-124q-137 174 -402 503t-402 503v-634q0 -133 31.5 -217.5t84.5 -90.5l20 -2q2 -14 2 -38v-22h-368v60l20 2q53 6 84.5 90.5t31.5 217.5v540
q0 133 -31.5 217.5t-84.5 90.5l-20 2q-2 14 -2 38v22z" />
    <glyph glyph-name="endash" unicode="&#x2013;" horiz-adv-x="808" 
d="M110 288v226h570v-226h-570z" />
    <glyph glyph-name="emdash" unicode="&#x2014;" horiz-adv-x="1492" 
d="M110 288v226h1262v-226h-1262z" />
    <glyph glyph-name="quoteleft" unicode="&#x2018;" horiz-adv-x="432" 
d="M30 868q0 149 75.5 266t202.5 166l12 -34q-77 -29 -124 -115.5t-38 -196.5q33 10 58 10q64 0 106 -45.5t42 -116.5q0 -72 -41.5 -115t-110.5 -43q-85 0 -133.5 67t-48.5 157z" />
    <glyph glyph-name="quoteright" unicode="&#x2019;" horiz-adv-x="432" 
d="M266 980q-33 -10 -58 -10q-66 0 -108 45.5t-42 116.5q0 72 42 115t112 43q85 0 133.5 -67t48.5 -157q0 -149 -75.5 -266t-204.5 -166l-12 34q78 29 125.5 115.5t38.5 196.5z" />
    <glyph glyph-name="quotesinglbase" unicode="&#x201a;" horiz-adv-x="530" 
d="M338 36q-33 -10 -58 -10q-66 0 -108 45.5t-42 116.5q0 72 42 115t112 43q85 0 133.5 -67t48.5 -157q0 -148 -76 -265t-204 -167l-12 34q78 29 125.5 115.5t38.5 196.5z" />
    <glyph glyph-name="quotedblleft" unicode="&#x201c;" horiz-adv-x="1034" 
d="M594 690q-31 32 -48.5 80.5t-17.5 97.5q0 149 75.5 266t204.5 166l10 -34q-77 -29 -124 -115.5t-38 -196.5q33 10 58 10q66 0 108 -45.5t42 -116.5q0 -72 -42 -115t-112 -43q-76 0 -116 46zM96 868q0 149 75.5 266t202.5 166l12 -34q-77 -29 -124 -115.5t-38 -196.5
q33 10 58 10q64 0 106 -45.5t42 -116.5q0 -72 -41.5 -115t-110.5 -43q-85 0 -133.5 67t-48.5 157z" />
    <glyph glyph-name="quotedblright" unicode="&#x201d;" horiz-adv-x="874" 
d="M706 980q-33 -10 -58 -10q-66 0 -108 45.5t-42 116.5q0 72 42 115t112 43q85 0 133.5 -67t48.5 -157q0 -149 -75.5 -266t-204.5 -166l-10 34q77 29 124 115.5t38 196.5zM274 980q-33 -10 -58 -10q-66 0 -108 45.5t-42 116.5q0 72 42 115t112 43q85 0 133.5 -67t48.5 -157
q0 -148 -76 -265t-204 -167l-12 34q78 29 125.5 115.5t38.5 196.5z" />
    <glyph glyph-name="quotedblbase" unicode="&#x201e;" horiz-adv-x="938" 
d="M770 -32q-33 -10 -58 -10q-66 0 -108 45.5t-42 116.5q0 72 42 115t112 43q85 0 133.5 -67t48.5 -157q0 -149 -75.5 -266t-204.5 -166l-10 34q77 29 124 115.5t38 196.5zM338 -32q-33 -10 -58 -10q-66 0 -108 45.5t-42 116.5q0 72 42 115t112 43q85 0 133.5 -67t48.5 -157
q0 -148 -76 -265t-204 -167l-12 34q78 29 125.5 115.5t38.5 196.5z" />
    <glyph glyph-name="dagger" unicode="&#x2020;" horiz-adv-x="970" 
d="M58 872q0 47 31.5 84.5t76.5 37.5q53 0 151.5 -45.5t140.5 -52.5q-7 39 -54.5 138t-47.5 142q0 66 36.5 102t93.5 36q55 0 91.5 -35t36.5 -101q0 -52 -48.5 -142t-53.5 -140q45 6 142 52t146 46q42 0 78 -43t36 -83q0 -43 -32.5 -81.5t-75.5 -38.5q-56 0 -161.5 50
t-160.5 50q-57 0 -160.5 -50t-155.5 -50q-53 0 -81.5 34t-28.5 90zM456 -158q-4 99 -43 391.5t-39 442.5q0 57 31.5 110.5t78.5 53.5q46 0 77 -56.5t31 -105.5q0 -154 -36.5 -449.5t-41.5 -386.5h-58z" />
    <glyph glyph-name="bullet" unicode="&#x2022;" 
d="M106 602q0 86 50 136t136 50q87 0 138.5 -50.5t51.5 -135.5q0 -76 -56 -130t-134 -54q-77 0 -131.5 54t-54.5 130z" />
    <glyph glyph-name="ellipsis" unicode="&#x2026;" horiz-adv-x="1164" 
d="M582 0q-72 0 -114 43t-42 117t42 117t114 43t114 -43t42 -117t-42 -117t-114 -43zM854 160q0 73 41.5 116.5t112.5 43.5q72 0 114 -43t42 -117t-42 -117t-114 -43q-71 0 -112.5 43.5t-41.5 116.5zM156 0q-72 0 -114 43t-42 117t42 117t114 43q71 0 112.5 -43.5
t41.5 -116.5t-41.5 -116.5t-112.5 -43.5z" />
    <glyph glyph-name="guilsinglleft" unicode="&#x2039;" horiz-adv-x="564" 
d="M272 460l264 -354l-32 -32l-524 370v32l516 370l32 -32z" />
    <glyph glyph-name="guilsinglright" unicode="&#x203a;" horiz-adv-x="564" 
d="M60 74l-30 32l262 354l-256 354l32 32l516 -370v-32z" />
    <glyph glyph-name="fraction" unicode="&#x2044;" horiz-adv-x="824" 
d="M60 -44l-120 88l920 1340l120 -88z" />
    <glyph glyph-name="Euro" unicode="&#x20ac;" horiz-adv-x="1526" 
d="M186 382h-176l28 208h98q-3 50 0 100h-98l30 208h118q82 185 280.5 288.5t479.5 103.5q169 0 311 -38.5t211 -103.5l14 -298h-26q-6 14 -21 41t-19 35q-65 131 -194 207.5t-276 76.5q-152 0 -263.5 -82t-162.5 -230h558l-26 -208h-570q-3 -50 0 -100h570l-30 -208h-502
q51 -146 162.5 -228t263.5 -82q147 0 276 76.5t194 207.5q4 8 19 35t21 41h26l-14 -300q-69 -65 -211 -103.5t-311 -38.5q-281 0 -479.5 103.5t-280.5 288.5z" />
    <glyph glyph-name="trademark" unicode="&#x2122;" horiz-adv-x="2152" 
d="M1196 482h-266v36l10 2q35 8 56 58t24 134l14 354q1 77 -16.5 124t-47.5 52h-14v38h240l308 -580l262 580h86v2h174v-38l-12 -2q-32 -5 -48 -57.5t-12 -134.5l14 -362q6 -73 28 -118t52 -50l14 -2v-36h-364v12l2 24l12 2q30 5 48 50.5t18 119.5l-8 440l-310 -656h-50
q-51 99 -161 289.5t-157 280.5l-12 -314q-3 -91 23.5 -147.5t74.5 -62.5l18 -2v-36zM88 1052q25 194 26 204l2 24h792l4 -24q16 -97 26 -204l-16 2l-14 26q-44 70 -124 110.5t-172 39.5v-518q0 -84 18.5 -136t51.5 -56l14 -2v-36h-368v12l2 24l12 2q33 6 53.5 57.5
t20.5 134.5v518q-93 1 -174.5 -40t-123.5 -110l-16 -26q-6 -2 -14 -2z" />
    <glyph glyph-name="fi" unicode="&#xfb01;" horiz-adv-x="1356" 
d="M14 0v22l2 38l18 2q54 6 86 90t32 218v428h-132v114h132q5 116 42.5 205.5t101.5 147.5t143 93.5t177 51.5q29 5 65.5 5.5t81 -5t89 -17.5t88 -34t79.5 -51.5t62.5 -73t36.5 -96.5q6 -49 -12 -89t-50.5 -62.5t-67.5 -34.5t-66 -12q-60 0 -95 45.5t-19 102.5
q35 121 -14 183.5t-140 62.5q-38 0 -84 -14q-64 -21 -101 -115t-37 -233v-60h286v-114h-286v-428q0 -134 32 -218t86 -90l18 -2q2 -14 2 -38v-22h-556zM764 742l366 174l56 -26v-520q0 -134 31 -218t85 -90l20 -2q2 -14 2 -38v-22h-560v22l2 38l20 2q56 6 86 93.5t30 226.5
q0 128 -9.5 188t-31.5 87.5t-75 54.5l-20 10q-2 10 -2 20z" />
    <glyph glyph-name="fl" unicode="&#xfb02;" horiz-adv-x="1532" 
d="M570 0h-556v22l2 38l18 2q54 6 86 90t32 218v428h-132v114h132q11 246 108.5 356.5t325.5 107.5q126 -1 228 -66t110 -146q0 -60 -34.5 -95t-91.5 -35q-65 0 -112 38t-30 92q8 24 10.5 44t-1.5 39.5t-16 33t-37 21t-62 6.5q-46 -2 -82 -101.5t-36 -234.5v-60h286v-114
h-286v-428q0 -134 32 -218t86 -90l18 -2q2 -14 2 -38v-22zM942 0v22l2 38l20 2q54 6 85 90t31 218v440q0 131 -8.5 194t-32 97.5t-75.5 60.5l-20 10q-2 10 -2 20l366 148h56v-970q0 -134 31 -218t85 -90l20 -2q2 -14 2 -38v-22h-560z" />
    <glyph glyph-name="NULL" horiz-adv-x="0" 
 />
    <glyph glyph-name="CR" horiz-adv-x="512" 
 />
    <glyph glyph-name="A.alt01" horiz-adv-x="1462" 
d="M-86 728q-23 46 -29 90.5t11 85t60 62.5q36 18 74 18q43 0 75.5 -21t44.5 -59q11 -38 19.5 -91t19.5 -88t37 -67q49 -60 118 -106l298 758h78l456 -940q83 -172 156 -261.5t110 -62.5l20 14q2 -14 2 -38v-22h-624v60l22 2q34 3 42.5 42t-8.5 105.5t-56 156.5l-14 32
q-232 -14 -438 28l-22 -58q-45 -133 -35 -216.5t73 -89.5l24 -2q2 -14 2 -38v-22h-416v60l20 2q56 6 121.5 90.5t116.5 217.5l30 78q-290 83 -388 280zM420 512q141 -60 376 -52l-220 466z" />
    <glyph glyph-name="A.alt02" horiz-adv-x="1590" 
d="M-400 -164q0 70 42.5 119.5t97.5 34.5q72 -18 136 -18q84 0 161.5 31.5t132.5 77t107 112.5t83.5 121.5t63.5 121.5l346 874h78l456 -940q82 -170 156 -260t110 -64l20 14q2 -14 2 -38v-22h-624v60l22 2q53 4 47 88t-69 216l-24 50h-432l-6 -18q-9 -27 -29.5 -72
t-58 -112t-83 -135t-107 -137.5t-127.5 -123t-148 -88t-165 -36.5q-76 -2 -132 35t-56 107zM704 926l-160 -430l364 -2z" />
    <glyph glyph-name="A.alt03" horiz-adv-x="1342" 
d="M14 0v60l20 2q55 6 120 90t118 218l370 940h78q38 -79 99.5 -217t118.5 -270.5t130.5 -292.5t141 -296.5t145 -268.5t146 -223t140.5 -144t133 -48q51 4 82 27.5t43.5 56.5t20 67.5t21 67t37.5 47.5q31 20 70 20q47 0 84.5 -28t43.5 -74q6 -44 -9.5 -81.5t-44 -63
t-71 -46.5t-85 -33t-90.5 -20.5t-84 -12.5t-70 -5q-235 -10 -442 180t-360 540l-104 224h-432l-18 -48q-45 -133 -35 -216.5t73 -89.5l24 -2q2 -14 2 -38v-22h-416zM416 496l364 -2l-204 432z" />
    <glyph glyph-name="B.alt01" horiz-adv-x="1330" 
d="M622 0h-634v22l2 38l20 2q54 6 85 90t31 218v540q0 134 -31 218t-85 90l-20 2q-2 14 -2 38v22h698q246 0 392 -90.5t146 -243.5q0 -78 -32.5 -130.5t-111.5 -91.5q-72 18 -160 18q-43 0 -90 -10q36 49 54 90.5t21 59.5t7 64q0 116 -61.5 185t-164.5 69h-246v-528h184
q41 0 84 10q-48 -42 -76 -84h-192v-518q29 0 84 -2t92 -3t90 2t89.5 11t78 26t68 45t47 70.5t27.5 100.5q5 40 4.5 77t-8 76.5t-24.5 63.5t-46.5 36.5t-73.5 -3.5q-15 -5 -14.5 -35t5 -71t2.5 -83t-31 -76.5t-88 -46.5q-39 -8 -76 15.5t-46 68.5q-25 124 68.5 222t253.5 98
q72 0 156 -24q128 -47 184 -159q57 -115 10 -233q-53 -133 -218 -202q-179 -76 -452 -54z" />
    <glyph glyph-name="C.alt01" horiz-adv-x="1396" 
d="M6 640q0 291 212 466.5t572 183.5q263 -1 419 -152q116 -112 132 -266q16 -146 -68 -250q-53 -65 -135 -96q-62 -34 -156 -34q-86 0 -164 27.5t-124.5 83t-31.5 123.5q10 47 37.5 74t64.5 30q39 3 63 -15t32.5 -48t12.5 -61t11 -57t21 -33q23 -10 40 -10q64 0 112 88
q55 100 48 227q-8 156 -113 233q-79 57 -201 56q-203 -11 -321.5 -164t-118.5 -406q0 -260 126.5 -414t339.5 -154q147 0 276 76.5t194 207.5q4 8 19 35t21 41h26l-14 -300q-69 -65 -211 -103.5t-311 -38.5q-370 0 -590 176.5t-220 473.5z" />
    <glyph glyph-name="C_cap_cedilla" horiz-adv-x="1396" 
d="M784 -10q-358 9 -568 184t-210 466q0 297 220 473.5t590 176.5q169 0 311 -38.5t211 -103.5l14 -298h-26q-6 14 -21 41t-19 35q-65 131 -194 207.5t-276 76.5q-213 0 -339.5 -154.5t-126.5 -415.5q0 -260 126.5 -414t339.5 -154q147 0 276 76.5t194 207.5q4 8 19 35
t21 41h26l-14 -300q-64 -60 -192.5 -98t-283.5 -44q-62 -29 -148 -130q65 36 120 36q91 0 145.5 -45.5t54.5 -122.5t-71.5 -122.5t-194.5 -45.5q-45 0 -93.5 24t-82.5 64l22 26q23 -30 96 -30q71 0 111.5 22.5t40.5 61.5q0 55 -26 81.5t-68 26.5q-47 0 -94 -28l-18 14
q24 31 55.5 72.5t48 63t24.5 32.5z" />
    <glyph glyph-name="D.alt01" horiz-adv-x="1700" 
d="M20 632q-131 48 -184 159q-55 114 -1 231q61 135 241 206q173 68 422 58l368 -6q240 0 420 -78.5t277 -223.5t97 -338q0 -293 -195.5 -466.5t-526.5 -173.5h-746v22l2 38l20 2q54 6 85 90t31 218v190q8 -1 32.5 10t59 36.5t67 59.5t57.5 86t30 110q6 82 -44.5 151
t-135.5 69q-44 0 -90 -20q-12 89 -30 120q-76 -32 -121 -94.5t-55 -137.5q-3 -33 -3.5 -64t3.5 -65.5t14 -59t27.5 -45t44.5 -23t64 6.5q13 4 14.5 25.5t-4 51t-5 65t7.5 67t36 57.5t79 36q38 8 73.5 -14t42.5 -66q25 -124 -66 -219t-250 -95q-83 0 -158 24zM644 1200v-1120
h294q189 0 299.5 151.5t110.5 408.5q0 256 -130.5 408t-351.5 152h-222z" />
    <glyph glyph-name="D.alt02" horiz-adv-x="1796" 
d="M640 0q-356 -9 -536 135q-120 95 -124 227q-4 120 87 210q52 51 127 78q84 24 156 24q160 0 253.5 -98t68.5 -222q-17 -87 -122 -84q-50 1 -79 24t-36 55.5t-6.5 72t6 73t4 58.5t-14.5 29q-42 13 -73.5 3.5t-46.5 -36.5t-24.5 -63.5t-8 -76.5t4.5 -77q16 -154 132 -210
q2 26 6.5 78t5.5 64q12 -31 51 -48.5t87 -17.5q136 0 180 118l10 2l-10 -238h298q188 0 299 152t111 408q0 257 -131 408.5t-353 151.5h-220l-2 -682h-10q-38 79 -121.5 135t-178.5 73l-4 184q0 134 -31 218t-85 90l-18 2q-2 14 -2 38v22h672q364 0 580 -173.5t216 -466.5
t-196 -466.5t-526 -173.5h-396z" />
    <glyph glyph-name="E.alt01" horiz-adv-x="1354" 
d="M6 632q-132 49 -185 158q-54 112 3 228q68 137 262 208q167 61 400 60l146 -6h622l2 -40q2 -45 6 -148t6 -148l-22 2l-22 38q-57 98 -185 157t-287 59h-120l-2 -518q146 6 255.5 37.5t152.5 80.5l18 20q22 2 46 2v-384l-46 2l-18 24q-42 55 -151.5 90.5t-256.5 43.5v-228
q-4 -68 13.5 -160.5t62.5 -129.5h46q162 0 301 58t207 158l26 38q10 2 24 2q-8 -36 -60 -296l-8 -40h-1066v22l2 38l30 2q22 2 39.5 16.5t28 41t18 54t11.5 66t6 65t3 63t2 48.5v144q8 -1 32.5 10t59.5 36.5t67.5 59.5t57.5 86t29 110q5 82 -45.5 151t-134.5 69
q-44 0 -90 -20q-12 89 -30 120q-76 -32 -121 -95t-53 -137q-3 -33 -3.5 -64t3.5 -65.5t14 -59t27 -45t43.5 -23t63.5 6.5q15 5 14.5 34t-5 68.5t-1.5 80t32 74t88 45.5q40 8 74.5 -13.5t43.5 -66.5q25 -123 -67 -218.5t-251 -95.5q-83 0 -158 24z" />
    <glyph glyph-name="F.alt01" horiz-adv-x="1286" 
d="M-46 632q-131 48 -184 159q-55 112 -1 228q62 135 244 205q171 66 419 56h830v-40q2 -45 7 -148t7 -148l-22 2l-22 38q-57 98 -185 157t-287 59h-180l-2 -528q141 8 244.5 39t145.5 79l18 20q22 2 46 2v-384l-46 2l-18 24q-40 53 -144 88t-246 46v-218q-2 -33 2 -79
t15 -98.5t36 -90t61 -40.5l20 -2q2 -14 2 -38v-22h-580v22l2 38l20 2q38 4 62.5 33t32.5 70t11.5 89t1 89.5t0.5 72.5v144q8 -1 32.5 10t59 36.5t67 59.5t57.5 86t30 110q6 82 -44.5 151t-135.5 69q-44 0 -90 -20q-12 89 -30 120q-76 -32 -121 -94.5t-55 -137.5
q-3 -33 -3.5 -64t3.5 -65.5t14 -59t27.5 -45t44.5 -23t64 6.5q13 4 14.5 25.5t-4 51t-5 65t7.5 67t36 57.5t79 36q38 8 73.5 -14t42.5 -66q25 -124 -66 -219t-250 -95q-83 0 -158 24z" />
    <glyph glyph-name="G.alt01" horiz-adv-x="1452" 
d="M798 -10q-363 0 -577.5 176.5t-214.5 473.5t214.5 473.5t577.5 176.5q159 0 295 -38.5t207 -103.5l14 -298h-26q-6 12 -20 38t-20 38q-65 131 -188.5 207.5t-261.5 76.5q-205 0 -326.5 -154.5t-121.5 -415.5q0 -260 121.5 -414t326.5 -154q106 0 226 20v54v86
q0 134 -31 218t-85 90l-20 2q-2 14 -2 38v22h560v-22l-2 -38l-20 -2q-54 -6 -85 -90t-31 -218v-64q10 -310 -99.5 -463t-302.5 -153q-108 0 -242 50q-84 32 -124.5 77t-29.5 119q7 48 43 78t81 30q38 0 64 -18q21 -14 34 -43t18 -59t15 -63.5t25.5 -54.5t49 -32t84.5 2
q28 6 48 32.5t30 59.5t15.5 85t6.5 93t0 100q-108 -18 -226 -18z" />
    <glyph glyph-name="G.alt02" horiz-adv-x="1452" 
d="M798 -10q-363 0 -577.5 176.5t-214.5 473.5q0 195 95.5 342t273 227t415.5 81q302 8 472 -112q14 -10 38 -30v-4q77 -76 81.5 -172.5t-61.5 -178.5t-182 -119q-81 -36 -190 -36q-76 0 -138 19.5t-104.5 65.5t-43.5 113q0 47 33.5 75.5t74.5 30.5q48 2 72.5 -25t27.5 -62
t10.5 -68t23.5 -39q44 -17 87 4t69.5 67.5t39 103.5t-3.5 118.5t-60 104.5q-115 64 -238 64q-205 0 -326.5 -154.5t-121.5 -415.5q0 -260 121.5 -414t326.5 -154q106 0 226 20v140q0 255 -116 268l-20 2q-2 14 -2 38v22h560v-22l-2 -38l-20 -2q-116 -13 -116 -268v-130
q-86 -51 -224.5 -81.5t-285.5 -30.5z" />
    <glyph glyph-name="H.alt01" horiz-adv-x="1442" 
d="M18 22l2 38l18 2q54 6 86 90t32 218v540q0 134 -32 218t-86 90l-18 2q-2 14 -2 38v22h590v-22l-2 -38l-20 -2q-54 -6 -85 -90t-31 -218v-236h504v236q0 134 -31 218t-85 90l-20 2q-2 14 -2 38v22h588v-22l-2 -38l-20 -2q-54 -6 -85 -90t-31 -218v-740q2 -6 2 -18
q3 -54 0.5 -119t2.5 -132t15 -121.5t39.5 -87.5t74.5 -30q51 4 82 27t43.5 56t20 67t21.5 67t39 49q31 20 70 20q47 0 84 -28t44 -74q10 -61 -21 -110t-84.5 -78.5t-120 -48t-125.5 -24t-103 -1.5q-182 16 -287.5 158t-106.5 418h-2v432h-504v-222q0 -134 31 -218t85 -90
l20 -2q2 -14 2 -38v-22h-590v22z" />
    <glyph glyph-name="I.alt01" horiz-adv-x="774" 
d="M364 1280q54 3 118 0h274v-22l-2 -38l-18 -2q-39 -4 -67.5 -51.5t-40.5 -126.5l-2 -670q-2 -33 2 -78.5t15 -98t37 -90t62 -41.5l18 -2q2 -14 2 -38v-22h-580v22l2 38l20 2q39 4 63.5 33t32.5 70t11.5 89t0.5 89.5t0 72.5v144q8 -1 32.5 10t59.5 36.5t67.5 59.5t57.5 86
t29 110q5 82 -45.5 151t-134.5 69q-42 0 -88 -20q-11 84 -32 120q-76 -32 -121 -95t-53 -137q-3 -33 -3.5 -64t3.5 -65.5t14 -58.5t27 -44.5t43.5 -23.5t63.5 6q15 5 15 34t-4.5 68.5t-2 80t31.5 74t88 45.5q40 8 74.5 -13.5t43.5 -66.5q25 -123 -67 -218.5t-251 -95.5
q-83 0 -158 24q-131 48 -184 158q-54 112 0 228q62 135 242 205q129 50 302 57h2z" />
    <glyph glyph-name="J.alt01" horiz-adv-x="860" 
d="M280 -142q-85 -6 -158.5 7.5t-126.5 42.5t-95 68.5t-64 86.5t-33 97t-3 100t27 94t55.5 81t85.5 59q96 38 172 38q105 0 153.5 -65.5t28.5 -170.5q-9 -47 -45 -75.5t-67 -20.5q-35 9 -55 26.5t-24.5 38t-2.5 43t9 44.5t12.5 41t4.5 32.5t-12 18.5q-19 8 -38 8
q-54 0 -80 -66t-18 -156q21 -221 202 -274q73 3 127.5 89t54.5 243v622q0 134 -31 218t-85 90l-20 2q-2 14 -2 38v22h588v-22l-2 -38l-20 -2q-51 -4 -82 -81t-34 -201l2 -376q0 -150 -10.5 -253t-37 -189t-74.5 -138t-120.5 -83t-177.5 -41l-2 2h-2z" />
    <glyph glyph-name="K.alt01" horiz-adv-x="1190" 
d="M460 620q48 53 138 152q220 242 277 320q83 114 29 128q-2 20 -2 60h336v-60l-24 -2q-40 -3 -96 -38t-103 -76.5t-110.5 -109.5t-94.5 -105t-80 -95l-22 -22q87 -190 213 -402t257 -393t256 -297t200 -110q51 4 82.5 28t45 57.5t21.5 68.5t22.5 68t38.5 48q31 20 70 20
q47 0 84.5 -28t43.5 -74q8 -61 -19 -110.5t-73 -79t-109 -50t-119 -29t-110 -9.5q-101 -2 -204 36.5t-188 97t-178.5 157.5t-159 182.5t-147.5 210.5t-127 203t-112 195q-8 8 -12 20q-1 4 -24 38zM578 0h-590v22l2 38l20 2q54 6 85 90t31 218v540q0 134 -31 218t-85 90
l-20 2q-2 14 -2 38v22h590v-22l-2 -38l-20 -2q-53 -6 -84.5 -90.5t-31.5 -217.5v-540q0 -133 31.5 -217.5t84.5 -90.5l20 -2q2 -14 2 -38v-22z" />
    <glyph glyph-name="L.alt01" horiz-adv-x="1310" 
d="M-12 632q-130 48 -183 159q-54 113 0 229q63 135 246 205q171 64 417 55h276v-22l-2 -38l-20 -2q-36 -4 -61 -38.5t-36 -87.5t-15 -96.5t-4 -85.5v-46q-1 -38 -4 -111q-4 -123 -5.5 -182.5t-0.5 -152.5t10 -138.5t25.5 -97t46 -74.5t70.5 -28q110 -13 205.5 18.5
t159.5 87.5t111 134l28 42l36 -12q-26 -124 -62 -310l-8 -40h-1050v22l2 38l20 2q39 4 63.5 33t32.5 70t11.5 89t0.5 89.5t0 72.5v144q8 -1 32.5 10t59.5 36.5t68 59.5t58 86t30 110q5 83 -46 151.5t-136 68.5q-42 0 -88 -20q-11 84 -32 120q-76 -31 -120 -94t-54 -138
q-4 -32 -4.5 -64t3 -65.5t14 -59t28.5 -45t45 -23t64 6.5q13 4 14.5 25.5t-4 51t-5 65t7.5 67t36 57.5t79 36q38 8 72.5 -14t43.5 -66q25 -123 -67 -218.5t-251 -95.5q-83 0 -158 24z" />
    <glyph glyph-name="M.alt01" horiz-adv-x="1818" 
d="M32 60l20 2q54 6 88.5 90t39.5 218l22 566q2 123 -26.5 199.5t-77.5 82.5l-18 2q-2 14 -2 38v22h380l494 -928l420 928h142v2h274v-60l-18 -2q-51 -6 -77.5 -90.5t-20.5 -217.5l12 -758v-2q1 -25 1.5 -81.5t1.5 -95t5 -92t13.5 -89.5t24 -69.5t40 -49t58.5 -13.5
q51 4 82 27t43.5 56t20 67t21.5 67t39 49q29 20 70 20q46 0 83.5 -28t44.5 -74q10 -61 -21.5 -110t-85 -78.5t-120 -48t-125.5 -24t-102 -1.5q-184 16 -289.5 161.5t-104.5 428.5l-6 864l-496 -1048h-76q-78 149 -255 452.5t-257 457.5l-18 -500q-6 -148 36 -241t118 -97
l30 -2q2 -14 2 -38v-22h-430v60z" />
    <glyph glyph-name="M.alt02" horiz-adv-x="1988" 
d="M94 -144q-111 -6 -199.5 29t-139.5 94t-74.5 134.5t-13.5 148t53.5 136t115.5 96.5q96 38 172 38q105 0 153.5 -65.5t28.5 -170.5q-9 -47 -45 -75.5t-67 -20.5q-35 9 -55 26.5t-24.5 38t-2.5 43t9 44.5t12.5 41t4.5 32.5t-12 18.5q-19 8 -38 8q-54 0 -80 -66t-18 -156
q10 -107 79 -173.5t153 -66.5q77 0 131.5 61.5t62.5 184.5l22 700q2 124 -25.5 201t-76.5 81l-20 2q-2 14 -2 38v22h380l490 -914l4 -14l420 928h142v2h274v-60l-18 -2q-51 -6 -77.5 -90.5t-20.5 -217.5l26 -580q11 -119 45 -192.5t83 -77.5l22 -2v-60h-584v22l2 38l18 2
q49 6 78.5 79.5t31.5 192.5l-16 704l-496 -1048h-76q-75 144 -252 448t-258 462l-22 -644q-3 -84 -21.5 -152t-47 -112.5t-67 -74.5t-79 -44t-85.5 -17z" />
    <glyph glyph-name="N.alt01" horiz-adv-x="1392" 
d="M22 1280h418l706 -826l16 462q-9 212 69.5 397.5t220.5 296t312 110.5q72 0 150 -24q73 -23 118.5 -82.5t27.5 -129.5q-16 -59 -56.5 -88.5t-89.5 -29.5t-82 24q-129 92 -244 92q-66 0 -119.5 -28.5t-88.5 -77.5t-60.5 -107t-38.5 -126t-19 -126.5t-6 -114.5v-48h-2
l-14 -894h-106q-138 177 -441.5 525t-438.5 519v-634q0 -134 31 -218t85 -90l20 -2q2 -14 2 -38v-22h-368v60l18 2q54 6 86 90t32 218v540q0 134 -32 218t-86 90l-18 2q-2 14 -2 38v22z" />
    <glyph glyph-name="N.alt02" horiz-adv-x="1370" 
d="M16 1280h418l706 -826q2 50 4 131.5t3 142t5.5 144t12 147.5t22 142t35.5 138.5t53 125t73 113t98 92t126 72.5q78 36 172 36q112 0 209 -48.5t139 -133.5q45 -71 54.5 -155.5t-14 -160t-79 -138t-133.5 -90.5q-49 -26 -114 -26q-80 0 -156 37t-120 103.5t-28 139.5
q10 48 41 78t67 30q29 0 50 -7t31 -22.5t15.5 -29.5t4 -38t-3 -38t-7 -40.5t-6.5 -34.5q-7 -40 38 -58q27 -10 46 -10q68 0 103 85t27 209q3 106 -56.5 166t-151.5 60q-59 0 -119 -25t-119 -80.5t-105 -135t-75.5 -198t-31.5 -259.5q0 -184 -7.5 -552.5t-8.5 -405.5h-104
q-137 174 -441 522t-441 522v-634q0 -134 31 -218t85 -90l20 -2q2 -14 2 -38v-22h-368v60l18 2q54 6 86 90t32 218v540q0 134 -32 218t-86 90l-18 2q-2 14 -2 38v22z" />
    <glyph glyph-name="N.alt03" horiz-adv-x="1590" 
d="M158 -184q-95 -7 -172.5 11t-127.5 54t-83 85t-43.5 104t-4 112.5t30.5 108.5t66 94.5t96 68.5q96 38 172 38q105 0 154.5 -65.5t29.5 -170.5q-9 -47 -45.5 -75.5t-68.5 -20.5q-41 10 -61.5 31.5t-20.5 46t5 52t14.5 50.5t8.5 41t-12 23q-19 8 -38 8q-52 0 -77.5 -65.5
t-20.5 -156.5q7 -117 61.5 -183.5t126.5 -66.5q75 0 130.5 74t59.5 210v686q0 133 -31.5 217.5t-84.5 90.5l-20 2q-2 14 -2 38v22h418l726 -826v456q0 134 -31 218t-85 90l-20 2q-2 14 -2 38v22h370v-22l-2 -38l-20 -2q-54 -6 -85 -90t-31 -218v-950h-106
q-138 176 -451.5 524t-448.5 520v-820q-4 -177 -77.5 -265t-196.5 -103z" />
    <glyph glyph-name="O.alt01" horiz-adv-x="1392" 
d="M680 -10q-133 0 -244 33.5t-189.5 93t-133.5 141t-81 178t-26 204.5q0 206 87.5 354t241.5 222t359 74q11 0 32.5 -1t31.5 -1q88 -8 164 -34.5t130 -66.5t96.5 -90t64 -105.5t30.5 -112t-2 -111t-34.5 -101t-66 -83.5t-98.5 -58q-62 -34 -156 -34q-85 0 -163 27.5
t-125 83t-34 123.5q9 47 37 74t67 30q48 4 73 -25t29.5 -67.5t12.5 -76t25 -45.5q20 -10 38 -10q64 0 112 88q55 101 48 228q-9 158 -115 234q-60 42 -145 52l-2 -6q-24 8 -64 8q-107 0 -183 -78.5t-111.5 -205t-35.5 -286.5t35.5 -286t111.5 -204t183 -78q135 0 211.5 91.5
t100.5 272.5q89 10 159.5 55t108.5 113.5t50 153.5t-16 174q60 -135 60 -292q0 -108 -26.5 -204.5t-81 -178t-133.5 -141t-190 -93t-243 -33.5z" />
    <glyph glyph-name="P.alt01" horiz-adv-x="1246" 
d="M-64 632q-130 48 -183 159q-54 113 -1 230q62 136 242 207q173 68 422 58l340 -6q233 0 370.5 -101t137.5 -271q0 -174 -148 -277t-398 -103h-158v-158q-2 -33 2 -78.5t15 -98t37 -90t62 -41.5l18 -2q2 -14 2 -38v-22h-580v22l2 38l20 2q39 4 63.5 33t32.5 70t11.5 89
t0.5 89.5t0 72.5v144q8 -1 32.5 10t59.5 36.5t67.5 59.5t57.5 86t29 110q5 82 -45.5 151t-134.5 69q-42 0 -88 -20q-11 84 -32 120q-76 -32 -121 -95t-53 -137q-3 -33 -3.5 -64t3.5 -65.5t14 -58.5t27 -44.5t43.5 -23.5t63.5 6q15 5 15 34t-4.5 68.5t-2 80t31.5 74t88 45.5
q40 8 74.5 -13.5t43.5 -66.5q25 -123 -67 -218.5t-251 -95.5q-83 0 -158 24zM756 1200h-194l-2 -592h158q100 0 160 81.5t60 218.5q0 134 -49 213t-133 79z" />
    <glyph glyph-name="Q.alt01" horiz-adv-x="1496" 
d="M460 16q-148 39 -252 132.5t-153 218t-49 273.5q0 108 26 204.5t81 178t133.5 141t189.5 93t244 33.5q132 0 243 -33.5t190 -93t133.5 -141t81 -178t26.5 -204.5q0 -50 -12 -116q-51 16 -106 16q-135 0 -240 -68q12 87 12 168q0 160 -35 286.5t-111 205t-182 78.5
q-107 0 -183 -78.5t-111.5 -205t-35.5 -286.5t35.5 -286t111.5 -204t183 -78q55 0 90 15t86 55q0 -75 66 -124q-89 -28 -242 -28h-14q43 -12 96 -42.5t94 -57.5t106 -47t136 -17q34 1 62 11t47 23.5t34.5 35.5t24.5 40.5t17 47t11 45.5t7.5 46t6.5 39q4 33 4.5 65t-3 67.5
t-14 62t-27.5 48t-44 25t-64 -5.5q-13 -4 -14.5 -25.5t4 -51t5 -65t-7.5 -67t-36 -57.5t-79 -36q-38 -8 -72.5 14t-43.5 66q-25 124 66 219t250 95q83 0 158 -24q95 -40 143.5 -135t28.5 -199q-2 -93 -89.5 -188t-223.5 -157.5t-271 -66.5q-79 -2 -165.5 17t-149.5 43.5
t-138 45t-133 20.5q-59 0 -94.5 -28t-35.5 -74h-80q0 126 75 205.5t203 88.5z" />
    <glyph glyph-name="R.alt01" horiz-adv-x="1318" 
d="M44 0v22l2 38l20 2q54 6 85 90t31 218v540q0 134 -31 218t-85 90l-20 2q-2 14 -2 38v22h698q252 0 402 -94.5t150 -253.5q0 -128 -92 -236.5t-246 -143.5h-4q117 -252 267.5 -482.5t303.5 -380.5t253 -141q51 4 82.5 28t45 57.5t21.5 68.5t22.5 68t38.5 48q31 20 70 20
q47 0 84 -28t44 -74q10 -61 -17 -109.5t-72.5 -77.5t-111 -49.5t-119 -29t-110.5 -12.5q-85 -7 -168 10t-150.5 43t-140.5 83t-124 102t-116 129.5t-102 135.5t-97 151.5t-85 145.5t-80 146q-44 81 -65 118h-130v-152q0 -134 32 -218t86 -90l18 -2q2 -14 2 -38v-22h-590z
M496 1200v-598h196q122 0 198 96.5t76 233.5q0 123 -61 195.5t-163 72.5h-246z" />
    <glyph glyph-name="S.alt01" horiz-adv-x="1186" 
d="M606 -270q-180 -1 -320 65t-202.5 168t-73.5 212t59 208.5t203 146.5q66 36 162 36q87 0 167.5 -29t129 -86t35.5 -127q-24 -101 -106 -108q-50 -4 -76.5 26t-31 69.5t-13 78t-25.5 46.5q-23 10 -42 10q-69 0 -127 -92q-63 -101 -64 -227q-1 -156 102 -233
q85 -64 231 -56q67 2 120 30t85 72t50 93t23 101q10 107 -17.5 197t-80 147.5t-117.5 91.5t-135 40q-94 10 -164.5 2t-99.5 -15.5t-36 -12.5q-55 41 -95.5 121.5t-40.5 154.5q0 207 146 329.5t426 126.5q100 1 207 -32.5t173 -87.5l18 -330h-30q-23 79 -78.5 162t-139 145
t-166.5 61q-124 -1 -200 -69t-76 -169q0 -37 26 -67.5t70 -54t101 -46.5t120 -49.5t126 -58.5t120 -78.5t101 -103.5t70 -139t26 -181q0 -122 -77.5 -235.5t-203 -182.5t-259.5 -70z" />
    <glyph glyph-name="T.alt01" horiz-adv-x="1312" 
d="M-66 624q-130 48 -183 159q-53 113 0 231q63 136 243 206q173 68 422 58l878 2l6 -40q7 -49 20 -162t20 -162l-24 2l-26 42q-70 113 -189 177t-265 63v-830q0 -134 31 -218t85 -90l20 -2q2 -14 2 -38v-22h-590v22l2 38l20 2q54 6 85 90t31 218l-4 818l-112 4v2
q-88 7 -160.5 -11.5t-120 -54.5t-75.5 -84t-34 -102q-5 -40 -4.5 -77t8 -76.5t24.5 -63.5t46.5 -36.5t73.5 3.5q15 5 15 34t-4.5 68.5t-2 80t31.5 74t88 45.5q40 8 74.5 -13.5t43.5 -66.5q25 -123 -67 -218.5t-251 -95.5q-83 0 -158 24z" />
    <glyph glyph-name="U.alt01" horiz-adv-x="1404" 
d="M246 1280q54 3 118 0h274v-22l-2 -38l-20 -2q-75 -9 -104 -168l-2 -540v-134q0 -272 282 -272q202 0 293 80t91 230l2 514q-6 129 -43.5 207.5t-96.5 82.5l-24 2q-2 14 -2 38v22h416q-2 -8 -2 -22v-38l-24 -2q-59 -5 -95.5 -95.5t-36.5 -232.5v-508q0 -93 -28.5 -163
t-89.5 -122.5t-163.5 -79.5t-244.5 -27q-288 0 -418 117t-130 333v120q8 -1 32.5 10t59 36.5t67 59.5t57.5 86t30 110q6 82 -44.5 151t-135.5 69q-44 0 -90 -20q-12 89 -30 120q-76 -32 -121 -95t-53 -137q-3 -33 -3.5 -64t3.5 -65.5t14 -59t27 -45t43.5 -23t63.5 6.5
q13 4 14.5 25.5t-4 51t-5 65t7.5 67t36 57.5t79 36q38 8 73.5 -14t42.5 -66q25 -124 -66 -219t-250 -95q-83 0 -158 24q-131 48 -184 158q-55 112 -1 228q61 135 241 205q129 50 302 57h2z" />
    <glyph glyph-name="V.alt01" horiz-adv-x="1164" 
d="M-54 1218l-18 2v60h610v-22l-2 -38l-22 -2q-57 -5 -51 -89.5t71 -218.5l266 -546l224 520q39 85 81 159t103.5 155.5t127 140t151 97t175.5 40.5q77 2 132.5 -35t55.5 -107t-42 -120t-96 -34q-66 18 -124 18q-66 0 -128 -22.5t-112 -59t-97 -88t-83.5 -105t-70 -114
t-58 -111t-47.5 -100.5q-15 -33 -22 -48l-242 -580h-80l-460 940q-67 136 -132.5 220t-109.5 88z" />
    <glyph glyph-name="V.alt02" horiz-adv-x="1480" 
d="M-36 632q-131 48 -184 159q-55 112 -1 228q62 135 244 205q171 66 419 56h262v-22l-2 -38l-22 -2q-56 -4 -50 -89.5t70 -218.5l266 -546l188 492q60 157 53 257.5t-79 104.5l-30 2q-2 52 -2 60h426v-60l-20 -2q-55 -6 -120 -90t-118 -218l-370 -940h-80l-358 734
q56 77 56 182q3 80 -46 132t-114 52q-41 0 -72 -20q-47 79 -88 120q-64 -35 -102 -94t-46 -126q-8 -47 -3.5 -97.5t17 -91.5t48 -59.5t88.5 -1.5q13 4 14.5 25.5t-4 51t-5 65t7.5 67t36 57.5t79 36q38 8 72.5 -14t43.5 -66q25 -124 -66 -219t-250 -95q-83 0 -158 24z" />
    <glyph glyph-name="V_i" horiz-adv-x="1778" 
d="M-72 1220v60h610v-22l-2 -38l-22 -2q-57 -5 -51 -89.5t71 -218.5l266 -546q21 49 56.5 140t63 160.5t70 162.5t81 162.5t92.5 142.5t109 120t125.5 78t146.5 32q77 2 132.5 -35t55.5 -107t-55.5 -134t-110.5 -48q-84 24 -148 24q-71 0 -130.5 -26.5t-98 -64.5t-75 -98.5
t-56.5 -108.5t-47 -116.5t-43 -101.5l-240 -576h-80l-460 940q-67 136 -132.5 220t-109.5 88zM1772 0h-560v22l2 38l20 2q56 6 86 93.5t30 226.5q0 190 -21.5 261.5t-94.5 108.5l-20 10q-2 10 -2 20l366 148h56v-560q0 -134 31 -218t85 -90l20 -2q2 -14 2 -38v-22z" />
    <glyph glyph-name="W.alt01" horiz-adv-x="1900" 
d="M8 1280h596v-22l-2 -38l-20 -2q-51 -4 -49.5 -89.5t55.5 -218.5q36 -94 107 -268.5t99 -245.5l316 904h78l410 -858l160 496q212 652 664 652q77 0 132.5 -36t55.5 -106t-42.5 -120t-97.5 -34q-69 20 -136 20q-69 0 -132.5 -23.5t-113 -61t-95.5 -93.5t-79 -111
t-65.5 -125t-53 -124t-41.5 -118l-228 -688h-76l-434 844l-294 -844h-78l-396 940q-58 136 -117 220t-103 88l-20 2v60z" />
    <glyph glyph-name="W.alt02" horiz-adv-x="2222" 
d="M-20 646q-130 48 -179 156q-51 110 8 224q69 134 260 202q173 61 417 52h260v-22l-2 -38l-20 -2q-16 -2 -27 -15t-15 -38t-1 -59.5t15.5 -81t33.5 -100.5l208 -534l318 910h76l412 -858l150 468q42 132 28 217t-78 91l-24 2v38l-2 22h404v-60l-22 -2q-54 -5 -113 -86
t-101 -210l-314 -952h-78l-428 840l-292 -826h-80l-320 734q56 77 56 182q3 81 -40 132.5t-104 51.5q-36 0 -70 -20q-42 72 -88 112q-71 -32 -114.5 -89t-51.5 -123q-8 -47 -3.5 -97.5t17 -91.5t48 -59.5t88.5 -1.5q13 4 14.5 25.5t-4 51t-5 65t7.5 67t36 57.5t79 36
q38 8 72.5 -14t43.5 -66q25 -124 -66 -219t-250 -95q-83 0 -160 24z" />
    <glyph glyph-name="X.alt01" horiz-adv-x="1456" 
d="M-52 634q-109 50 -146 157q-41 118 24 235q81 144 287 211q167 54 393 45h182v-22l-2 -38q-60 -4 -7 -126.5t159 -293.5l82 108q142 189 137 269q-4 35 -37 39l-20 2q-2 14 -2 38v22h416v-60l-24 -2q-56 -4 -153.5 -88.5t-208.5 -219.5l-146 -180q2 -2 2 -4
q46 -65 138 -196t138 -196q183 -259 294 -274v-60h-600v22l2 38l18 2q59 7 16 116q-28 70 -92 164l-128 182l-104 -142q-139 -190 -139 -276q0 -41 35 -44l22 -2q2 -14 2 -38v-22h-416v60l24 2q57 4 153.5 88.5t200.5 219.5l170 220l-90 126q48 66 48 172q1 78 -50 128
t-120 50q-52 0 -94 -28l-96 102q-75 -40 -104 -158q-28 -112 4 -201q33 -90 109 -85q16 0 33 6q13 4 14.5 25.5t-4 51t-5 65t7.5 67t36 57.5t79 36q38 8 72.5 -14t43.5 -66q16 -79 -32.5 -151.5t-144.5 -117.5t-211 -45q-91 0 -166 24z" />
    <glyph glyph-name="Y.alt01" horiz-adv-x="1456" 
d="M-56 632q-109 50 -146 157q-41 118 24 235q81 144 287 211q167 54 393 45h182v-22l-2 -38q-19 -1 -25.5 -15.5t-1.5 -40.5t16 -57t31.5 -72t39.5 -77.5t46.5 -82.5t46.5 -77t43 -70l130 180q136 196 127 275q-4 32 -35 35l-22 2q-2 14 -2 38v22h370v-60l-20 -2
q-50 -4 -138 -88t-190 -220l-182 -244v-296q0 -134 31 -218t85 -90l20 -2q2 -14 2 -38v-22h-588v22l2 38l18 2q49 6 80.5 77t37.5 187l-2 228l-86 150q56 77 56 182q1 78 -50 128t-120 50q-52 0 -94 -28l-96 102q-75 -40 -104 -158q-28 -112 4 -201q33 -90 109 -85
q16 0 33 6q13 4 14.5 25.5t-4 51t-5 65t7.5 67t36 57.5t79 36q38 8 72.5 -14t43.5 -66q16 -79 -32.5 -151.5t-144.5 -117.5t-211 -45q-91 0 -166 24z" />
    <glyph glyph-name="Y.alt02" horiz-adv-x="1128" 
d="M16 1220v60h602v-22q0 -35 -2 -37t-14 -3q-53 -5 -10 -119q29 -79 100 -189q10 -16 52 -81t64 -101l68 94q10 13 40.5 61t66 104.5t88.5 129.5t109 140.5t126.5 132t140.5 110t152 68t161 12.5q74 -10 124 -54.5t40 -113.5q-8 -56 -43.5 -98t-78.5 -42q-20 0 -36 8
q-91 44 -186 44q-70 0 -140 -28.5t-123.5 -69.5t-114 -105.5t-100 -116.5t-94 -125t-84.5 -109l-78 -104v-296q0 -134 31 -218t85 -90l20 -2q2 -14 2 -38v-22h-588v22l2 38l20 2q49 4 79.5 75.5t36.5 188.5l-2 252l-216 332q-87 135 -163.5 218.5t-120.5 89.5z" />
    <glyph glyph-name="Y.alt03" horiz-adv-x="1128" 
d="M16 1220v60h602v-22q0 -35 -2 -37t-14 -3q-53 -5 -10 -119q29 -79 100 -189q10 -16 52 -81t64 -101l148 204h2q347 472 756 418q76 -10 126 -54.5t40 -113.5q-8 -57 -44 -98.5t-80 -41.5q-20 0 -36 8q-180 84 -308 84q-66 0 -122.5 -19t-109.5 -61t-92 -83.5t-96 -110.5
l-146 -194v-296q0 -134 31 -218t85 -90l20 -2q2 -14 2 -38v-22h-588v22l2 38l20 2q49 4 79.5 75.5t36.5 188.5l-2 252l-216 332q-87 135 -163.5 218.5t-120.5 89.5z" />
    <glyph glyph-name="Z.alt01" horiz-adv-x="1164" 
d="M-44 972q12 41 41 134t41 134l12 40h954l-310 -592q-56 4 -135 -31.5t-115 -106.5q-35 -68 -40.5 -133.5t9.5 -110.5t43 -80l-74 -142q9 0 54.5 -7t53.5 -7q71 -4 126 2.5t108.5 29t89.5 72.5t50 126q8 51 8 97.5t-11 91t-44.5 64.5t-86.5 7q-15 -4 -15.5 -37.5t1.5 -78
t-3 -88.5t-37 -73t-92 -27q-47 2 -77.5 24.5t-36.5 67.5q-15 120 74 210t238 90q83 0 182 -36q105 -43 152 -148q50 -113 2 -229q-55 -136 -221 -201q-168 -65 -417 -42l-114 8h-380l622 1200h-108q-144 0 -277.5 -51.5t-212.5 -140.5l-30 -34q-12 -2 -24 -2z" />
    <glyph glyph-name="grave_glyph" 
d="M194 1212q-66 66 -66 90q0 27 62.5 73.5t99.5 46.5q12 0 48 -94q28 -36 59 -119.5t48 -148.5l17 -66l-32 -24q-174 160 -236 242z" />
    <glyph glyph-name="a.alt01" horiz-adv-x="912" 
d="M6 226q0 67 36.5 119t89.5 81.5t126.5 49.5t131.5 27.5t120 10.5v156q0 77 -19 122.5t-53 45.5q-64 0 -95 -65.5t-17 -170.5q-82 -22 -138 -22q-55 0 -146 22q-18 142 112 232.5t348 83.5q141 -5 223.5 -88t82.5 -226v-546q0 -67 5 -151t5 -103q7 -45 27.5 -72.5
t44.5 -25.5q37 2 59 20t30.5 45t13.5 55.5t15 58t28 45.5q35 32 72 32q56 0 96 -57t26 -103q-23 -73 -108.5 -128t-167.5 -60q-97 -6 -170.5 16.5t-118.5 62.5t-74.5 103.5t-42.5 128.5t-18 149q-136 -88 -276 -88q-109 0 -178.5 71.5t-69.5 168.5zM510 458
q-91 0 -155.5 -46.5t-64.5 -139.5q0 -66 40.5 -105t97.5 -39q46 0 84 26z" />
    <glyph glyph-name="c.alt01" horiz-adv-x="934" 
d="M472 -10q-205 0 -326.5 114t-121.5 306q0 117 37.5 219t105 176.5t169.5 113t224 29.5q84 -6 150.5 -30.5t118 -69t73 -119.5t6.5 -173q-22 -92 -81 -136t-131 -44q-50 0 -93 19.5t-61 50.5q-31 55 -27.5 110t35.5 78q25 20 56 20q26 0 50 -20.5t42.5 -41t31.5 -20.5
q17 0 34 34q8 16 8.5 45t-9 63.5t-28 64.5t-55 50.5t-84.5 20.5q-39 0 -74 -10q-99 -27 -149.5 -102.5t-50.5 -215.5q0 -83 22.5 -153.5t67 -124.5t117.5 -81t167 -19q45 4 103.5 42.5t88.5 105.5l32 -28q-34 -70 -90 -125t-119 -86t-124 -47t-115 -16z" />
    <glyph glyph-name="d.alt01" horiz-adv-x="1096" 
d="M400 -10q-172 0 -273 108.5t-101 293.5q0 243 130.5 386.5t351.5 143.5q80 0 152 -52q-2 101 -12.5 155t-33.5 83.5t-70 53.5l-20 10q-2 8 -2 20l362 148h56v-812l2 -504q2 -6 2 -18q3 -238 88 -268q18 -6 36 -6.5t33 3.5t30.5 12.5t27.5 18t25.5 23t22.5 24t21.5 24
t19.5 21.5q32 32 82 32q44 0 80 -25t42 -67q11 -76 -31.5 -125.5t-122.5 -70.5q-71 -20 -150 -20q-102 0 -191.5 36.5t-157.5 104t-105.5 174.5t-33.5 239q-59 -68 -127.5 -107t-132.5 -39zM494 842q-80 0 -127 -92t-47 -248q0 -153 63.5 -243.5t170.5 -90.5q65 0 106 24
v558q-62 92 -166 92z" />
    <glyph glyph-name="d.alt02" horiz-adv-x="1084" 
d="M-530 1066q-36 32 -57.5 71.5t-19.5 84.5t33 80q52 58 120 58q60 0 86 -46q111 -184 416 -184q320 0 802 194l40 16h56v-812q0 -128 10 -191.5t33 -96.5t75 -62l18 -10q2 -8 2 -20l-362 -148h-56v136q-59 -68 -127.5 -107t-132.5 -39q-172 0 -273 108.5t-101 293.5
q0 243 130.5 386.5t351.5 143.5q80 0 152 -52q-3 126 -18 181.5t-58 86.5q-458 -174 -774 -174q-230 0 -346 102zM500 842q-80 0 -127 -92t-47 -248q0 -153 63.5 -243.5t170.5 -90.5q65 0 106 24v558q-62 92 -166 92z" />
    <glyph glyph-name="e.alt01" horiz-adv-x="960" 
d="M28 410q0 234 134 373t360 139q188 0 300 -127.5t112 -340.5l-602 -10q10 -70 34.5 -125t67 -98t109.5 -63.5t155 -13.5q21 2 56.5 10t92 32t109 58t104 94t80.5 134q60 193 30.5 340.5t-138 234.5t-264.5 87q-92 0 -182 -28q-40 -13 -84 0t-76.5 55.5t-29.5 104.5
q3 73 63.5 116.5t136.5 41.5q108 -2 211.5 -41.5t188 -105.5t150 -157.5t101 -193.5t35 -219.5t-41.5 -230.5q-39 -98 -92 -177.5t-106.5 -130.5t-116.5 -89t-115 -57.5t-110.5 -31t-94 -14t-73.5 -2.5q-138 0 -253 55t-183 155.5t-68 225.5zM506 840q-84 0 -133.5 -91.5
t-46.5 -240.5h232q88 4 116 80q27 69 -10 147q-38 81 -117 100q-20 5 -41 5z" />
    <glyph glyph-name="g.alt01" horiz-adv-x="998" 
d="M8 -294q-6 93 46.5 146.5t149.5 69.5q-71 32 -110.5 86t-39.5 122q0 135 118 194q-152 89 -152 254q0 149 122 246.5t310 97.5q167 0 292 -80q204 409 464 454q112 20 179.5 -18t70.5 -102q6 -74 -51 -128t-137 -30q-66 20 -126 20q-61 0 -114.5 -18.5t-99 -55t-77 -70
t-69.5 -82.5q116 -97 116 -234q0 -144 -129 -233t-319 -89q-103 0 -190 28q-16 -19 -16 -54q0 -31 31.5 -51t84.5 -23q188 -2 214 -4q167 -12 280 -92t120 -194q7 -100 -40.5 -180t-131.5 -129t-190.5 -73.5t-221.5 -21.5q-65 2 -129 17.5t-121 44t-93.5 76t-40.5 106.5z
M196 -270q0 -78 57.5 -137t160.5 -59q166 0 253 53.5t69 156.5q-11 67 -75 96.5t-181 37.5q-28 2 -66.5 3t-67.5 3t-56 8q-94 -19 -94 -162zM452 854q-70 0 -119 -80t-49 -196q0 -113 48.5 -184.5t119.5 -71.5q73 0 129.5 72.5t56.5 183.5q0 114 -57.5 195t-128.5 81z" />
    <glyph glyph-name="g.alt02" horiz-adv-x="1008" 
d="M-1046 -436q-63 20 -97 63.5t-34 93.5t21 103q28 62 118 62q81 0 138 -44q154 -118 382 -118q178 0 361.5 66.5t320.5 161.5q-98 66 -98 178q0 135 118 194q-152 89 -152 254q0 149 122 246.5t310 97.5q166 0 288 -78q72 171 156 184q128 19 154 -106q7 -44 -23 -75
t-61 -21q-9 3 -53 22.5t-69 19.5q-41 0 -84 -38q140 -101 140 -252q0 -144 -129 -233t-319 -89q-103 0 -190 28q-16 -19 -16 -54q0 -31 31 -51t85 -23q186 -2 214 -4q167 -12 280 -92t120 -194q7 -100 -40.5 -180t-131.5 -129t-190.5 -73.5t-221.5 -21.5q-65 2 -129 17.5
t-121 44t-93.5 76t-40.5 106.5v36q-180 -86 -406 -148t-424 -62q-131 0 -236 32zM300 -108q-92 -20 -92 -162q0 -77 57.5 -136.5t158.5 -59.5q167 0 253.5 53.5t68.5 156.5q-10 67 -73 95.5t-183 38.5q-27 2 -65.5 3t-68 3t-56.5 8zM294 578q0 -113 49.5 -184.5t120.5 -71.5
t128.5 72.5t57.5 183.5q0 113 -58 194.5t-128 81.5t-120 -80t-50 -196z" />
    <glyph glyph-name="g.alt03" horiz-adv-x="1008" 
d="M-1046 -436q-63 20 -97 63.5t-34 93.5t21 103q28 62 118 62q81 0 138 -44q154 -118 382 -118q178 0 361.5 66.5t320.5 161.5q-98 66 -98 178q0 135 118 194q-152 89 -152 254q0 149 122 246.5t310 97.5q159 0 284 -74q201 402 460 448q112 20 179.5 -18t70.5 -102
q6 -74 -51 -128t-137 -30q-66 20 -126 20q-59 0 -112 -18t-98 -53.5t-76.5 -68.5t-69.5 -80q124 -98 124 -240q0 -144 -129 -233t-319 -89q-103 0 -190 28q-16 -19 -16 -54q0 -31 31 -51t85 -23q186 -2 214 -4q167 -12 280 -92t120 -194q7 -100 -40.5 -180t-131.5 -129
t-190.5 -73.5t-221.5 -21.5q-65 2 -129 17.5t-121 44t-93.5 76t-40.5 106.5v36q-180 -86 -406 -148t-424 -62q-131 0 -236 32zM208 -270q0 -77 57.5 -136.5t158.5 -59.5q167 0 253.5 53.5t68.5 156.5q-10 67 -73 95.5t-183 38.5q-27 2 -65.5 3t-68 3t-56.5 8
q-92 -20 -92 -162zM464 854q-70 0 -120 -80t-50 -196q0 -113 49.5 -184.5t120.5 -71.5t128.5 72.5t57.5 183.5q0 113 -58 194.5t-128 81.5z" />
    <glyph glyph-name="g_i" horiz-adv-x="1588" 
d="M8 -294q-6 93 46.5 146.5t149.5 69.5q-71 32 -110.5 86t-39.5 122q0 135 118 194q-152 89 -152 254q0 149 122 246.5t310 97.5q167 0 292 -80q204 409 464 454q112 20 179.5 -18t70.5 -102q6 -74 -51 -128t-137 -30q-66 20 -126 20q-61 0 -114.5 -18.5t-99 -55t-77 -70
t-69.5 -82.5q116 -97 116 -234q0 -144 -129 -233t-319 -89q-103 0 -190 28q-16 -19 -16 -54q0 -31 31.5 -51t84.5 -23q188 -2 214 -4q167 -12 280 -92t120 -194q7 -100 -40.5 -180t-131.5 -129t-190.5 -73.5t-221.5 -21.5q-65 2 -129 17.5t-121 44t-93.5 76t-40.5 106.5z
M1024 764l366 148h56v-542q0 -134 31 -218t85 -90l20 -2q2 -14 2 -38v-22h-560v22l2 38l20 2q56 6 86 93.5t30 226.5q0 130 -9 193.5t-32.5 98t-74.5 60.5l-20 10q-2 10 -2 20zM196 -270q0 -78 57.5 -137t160.5 -59q166 0 253 53.5t69 156.5q-11 67 -75 96.5t-181 37.5
q-28 2 -66.5 3t-67.5 3t-56 8q-94 -19 -94 -162zM452 854q-70 0 -119 -80t-49 -196q0 -113 48.5 -184.5t119.5 -71.5q73 0 129.5 72.5t56.5 183.5q0 114 -57.5 195t-128.5 81z" />
    <glyph glyph-name="h.alt01" horiz-adv-x="1090" 
d="M688 88v496q0 77 -36.5 139.5t-93.5 62.5q-67 0 -142 -100v-316q0 -134 31 -218t85 -90l18 -2h4l-2 -60h-552v60l20 2q53 6 83.5 89.5t30.5 218.5v442q0 129 -9 192.5t-32.5 97.5t-74.5 60l-20 10q-2 8 -2 20l362 148h58v-554q61 61 152.5 98.5t185.5 37.5
q216 0 216 -308v-364q0 -75 1 -130t2 -80.5t1 -29.5q0 -248 88 -278q18 -6 36 -6.5t33 3.5t30.5 12.5t27 18t25 23t22.5 24l21 24.5t19 21q31 34 82 34q44 0 80 -26t42 -68q11 -76 -31 -125.5t-123 -70.5q-67 -16 -134 -16q-151 0 -254 68q-67 43 -91 63q-159 136 -159 377z
" />
    <glyph glyph-name="h.alt02" horiz-adv-x="1090" 
d="M-808 1090q-44 36 -58.5 77.5t-2.5 76.5t35.5 64t53.5 45t54 15q42 -2 74 -17.5t50 -37.5t38 -49t38.5 -50.5t51 -43t74.5 -26.5q57 -13 261.5 51t380.5 134.5t176 78.5l-2 -98v-526q46 58 134 98t196 40q216 0 216 -308v-244q0 -134 31 -218t85 -90l20 -2q2 -14 2 -38
v-22h-1100v60l20 2q53 6 83.5 89.5t30.5 218.5v442q0 170 -16.5 242t-67.5 110q-394 -134 -630 -134q-154 0 -228 60zM680 584q0 80 -37 147t-95 67q-62 0 -132 -92v-336q0 -134 31 -218t85 -90l18 -2h4l10 2q54 11 85 93t31 215v214z" />
    <glyph glyph-name="i_t" horiz-adv-x="1270" 
d="M26 22l2 38l18 2q56 6 86 93.5t30 226.5q0 89 -2.5 135t-16 76t-26.5 40t-49 29q-14 8 -22 12l-18 10q4 32 4 42l476 164q45 15 76 27t89 40t102 58t93.5 77t83.5 100h48v-278l264 8v-114l-264 -8q-2 -396 -2 -570q0 -66 20 -88t80 -22q34 0 81.5 26t88.5 86l22 -26
q-37 -65 -85 -111.5t-96 -67t-84 -29t-67 -8.5q-146 0 -199 59.5t-53 230.5v520l-252 4l-8 -434q-3 -133 29.5 -217.5t86.5 -90.5l20 -2q2 -14 2 -38v-22h-558v22zM134 1212q0 74 42 117t114 43q71 0 112.5 -43.5t41.5 -116.5t-41.5 -116.5t-112.5 -43.5q-72 0 -114 43
t-42 117z" />
    <glyph glyph-name="k.alt01" horiz-adv-x="1046" 
d="M-2 22l2 38l20 2q54 6 85 90t31 218v440q0 130 -9 193.5t-32.5 98t-74.5 60.5l-20 10q-2 10 -2 20l364 148h58v-838l44 40q302 275 284 306q0 1 -2 2q-1 1 -2 1.5t-2 1.5t-1.5 2t-0.5 3v3.5v5v6v7.5v10v22h328v-60l-26 -2q-96 -9 -362 -210q30 -66 105 -198t174 -286
t203 -268.5t168 -117.5q45 -2 73 11t37.5 34t17 46t13 46.5t25 35.5t52.5 13q50 4 78 -17.5t30.5 -53.5t-10.5 -66t-38 -57q-60 -54 -144 -83t-178 -29q-114 0 -221 44t-181 130q-82 85 -159 195t-169 261.5t-136 217.5v-128q0 -134 31 -218t85 -90l18 -2q2 -14 2 -38v-22
h-558v22z" />
    <glyph glyph-name="k.alt02" horiz-adv-x="1172" 
d="M-2 1192l364 148h58l8 -776l-4 -38q4 4 6 4q34 29 121 119t137 135q92 82 169 122.5t145 25.5q38 -9 61 -39t25 -67t-7.5 -73t-36 -60.5t-60.5 -24.5q-53 0 -90 50q-7 9 -16.5 24t-14.5 23t-14 18t-15.5 9.5t-17.5 -2.5q-67 -32 -166 -144q35 -54 53.5 -82.5t66.5 -98
t81.5 -112.5t85 -102.5t92 -95t87 -63t84.5 -30.5l24 -2v-60h-546v22l2 38l10 2q12 2 -2 35.5t-54.5 98t-72.5 112t-85 126.5q-46 -62 -56 -80q2 -128 33 -207t83 -85l18 -2q2 -14 2 -38v-22h-558v22l2 38l20 2q54 6 85 90t31 218v440q0 130 -9 193.5t-32.5 98t-74.5 60.5
l-20 10q-2 10 -2 20z" />
    <glyph glyph-name="k.alt03" horiz-adv-x="1172" 
d="M556 0h-558v22l2 38l20 2q54 6 85 90t31 218v440q0 130 -9 193.5t-32.5 98t-74.5 60.5l-20 10q-2 10 -2 20l364 148h58v-724q379 472 570 472q32 0 52 -10q64 -29 80.5 -83.5t-4.5 -102t-58 -66.5q-33 -18 -70 -18q-31 0 -98.5 29t-117.5 19q-57 -23 -156 -122l56 -94
l230 -310q93 -119 177 -191.5t137 -76.5l24 -2v-60h-584v22l2 38l12 2q43 6 -56 165q-40 64 -98 143q-22 30 -98 130v-130q0 -134 31 -218t85 -90l18 -2q2 -14 2 -38v-22z" />
    <glyph glyph-name="k_i" horiz-adv-x="1698" 
d="M0 1172q-2 10 -2 20l364 148h58v-726q34 40 83.5 91.5t122.5 121t149 135.5t163.5 128t167 105.5t157 62t135.5 2.5q67 -19 95 -63.5t20.5 -90.5t-31 -85t-52.5 -51q-36 -14 -70 -14q-37 0 -76.5 19t-68 39t-75 32t-96.5 -2q-89 -17 -414 -330l44 -74l230 -310
q36 -46 77 -104.5t61 -87t45.5 -51t50.5 -25.5q56 7 87 94.5t31 225.5q0 129 -10 193t-33 97t-75 62l-18 10q-2 10 -2 20l364 148h56v-542q0 -133 31.5 -217.5t84.5 -90.5l20 -2q2 -14 2 -38v-22h-1018v22l2 38l12 2q36 5 -26 119q-46 81 -128 189q-79 103 -98 126v-126
q0 -134 31 -218t85 -90l18 -2q2 -14 2 -38v-22h-558v22l2 38l20 2q54 6 85 90t31 218v440q0 130 -9 193.5t-32.5 98t-74.5 60.5z" />
    <glyph glyph-name="m.alt01" horiz-adv-x="1722" 
d="M16 764l362 148h56v-138q43 60 135 104t205 44q164 0 202 -174q61 64 169.5 119t210.5 55q216 0 216 -308v-244q0 -146 36 -228q43 -74 85.5 -131t100 -113t128 -87t148.5 -31q86 0 180 40q50 20 94 20t74 -19.5t36 -60.5q12 -78 -31.5 -131.5t-122.5 -64.5
q-73 -10 -147 6t-137 49t-124.5 83t-110 102.5t-93.5 113.5q-66 49 -137.5 69.5t-124 19t-136 -6t-140.5 -0.5v60l24 2q54 4 85 88.5t31 219.5v214q0 78 -40 141t-100 63q-83 0 -162 -120q2 -18 2 -54v-244q0 -135 31 -219.5t85 -88.5l26 -2v-60h-542v60l10 2q53 10 80.5 91
t27.5 217v214q0 81 -37 147.5t-95 66.5q-67 0 -142 -106v-322q0 -134 32 -219t84 -89l22 -2v-60h-556v22l2 38l18 2q56 6 87 94t31 228q0 128 -10 191.5t-33 96.5t-75 62l-18 10q-2 8 -2 20z" />
    <glyph glyph-name="m.alt02" horiz-adv-x="1702" 
d="M1286 88v496q0 76 -37 139t-93 63q-80 0 -166 -136v-36v-244q0 -135 31 -219.5t85 -88.5l26 -2v-60h-542v60l10 2q53 10 80.5 91t27.5 217v214q0 81 -37 147.5t-95 66.5q-67 0 -142 -106v-322q0 -134 32 -219t84 -89l22 -2v-60h-556v22l2 38l18 2q56 6 87 94t31 228
q0 128 -10 191.5t-33 96.5t-75 62l-18 10q-2 8 -2 20l362 148h56v-138q43 60 135 104t205 44q166 0 204 -178q55 77 159.5 127.5t214.5 50.5q216 0 216 -308v-364q0 -75 1 -130t2 -80.5t1 -29.5q0 -26 1 -51.5t6 -65.5t14 -71t25.5 -57t39.5 -33q19 -6 37 -6.5t33 3.5
t30.5 12.5t27.5 18t25.5 23t22.5 24l21 24.5t19 21q31 34 82 34q44 0 80 -26t42 -68q11 -76 -31 -125.5t-123 -70.5q-67 -16 -134 -16q-154 0 -256 68q-2 1 -20 12.5t-27 18t-30 23t-34 29.5t-33 36t-32.5 45t-27.5 53.5t-23.5 64t-14.5 73.5t-6 85z" />
    <glyph glyph-name="n.alt01" horiz-adv-x="1132" 
d="M560 0h-550v22l2 38l20 2q54 6 85 94.5t31 227.5q0 129 -9 192.5t-32.5 97.5t-74.5 60l-20 10q-2 8 -2 20l362 148h56v-138q43 60 135 104t205 44q216 0 216 -308v-244q0 -136 17.5 -212t68.5 -168v-8q148 -176 322 -176q80 0 174 38q50 20 94 20t74 -19.5t36 -60.5
q12 -78 -32 -131.5t-122 -64.5q-88 -12 -175.5 13t-163.5 80t-138 119t-119 142v-4q-66 40 -131 50.5t-166.5 6t-144.5 -2.5l2 68l12 2q53 9 81.5 90.5t28.5 217.5v214q0 81 -37 147.5t-95 66.5q-67 0 -142 -106v-322q0 -134 31 -218t85 -90l16 -2v-60z" />
    <glyph glyph-name="n.alt02" horiz-adv-x="1108" 
d="M714 88v496q0 81 -37 147.5t-95 66.5q-67 0 -142 -106v-322q0 -134 31 -218t83 -90l18 -2v-60h-550v22l2 38l18 2q56 6 87 94t31 228q0 128 -10 191.5t-33 96.5t-75 62l-18 10q-2 8 -2 20l362 148h56v-138q43 60 135 104t205 44q216 0 216 -308v-364q0 -75 1 -130
t2 -80.5t1 -29.5q0 -26 1 -51.5t6 -65.5t14 -71t25.5 -57t39.5 -33q19 -6 37 -6.5t33 3.5t30.5 12.5t27.5 18t25.5 23t22.5 24l21 24.5t19 21q31 34 82 34q44 0 80 -26t42 -68q10 -76 -32 -126t-122 -70q-67 -16 -134 -16q-153 0 -256 68q-2 1 -20 12.5t-27 18t-30 23
t-34 29.5t-33 36t-32.5 45t-27.5 53.5t-23.5 64t-14.5 73.5t-6 85z" />
    <glyph glyph-name="r_a" horiz-adv-x="1618" 
d="M14 0v22l2 38l18 2q56 6 87 94t31 228q0 128 -10 191.5t-33 96.5t-75 62l-18 10q-2 8 -2 20l362 148h56v-324q22 36 52.5 75.5t94.5 97t137.5 99t182.5 66.5t227 14q142 -3 238 -104t96 -260v-318q0 -70 17 -106t61 -36q61 0 84 42l30 -38q-39 -71 -109.5 -107.5
t-196.5 -36.5q-60 0 -104 26t-60 72q-136 -88 -276 -88q-109 0 -178.5 71.5t-69.5 168.5q0 67 36.5 119t89.5 81.5t126.5 49.5t131.5 27.5t120 10.5v46q3 58 -15.5 103.5t-49 70.5t-54.5 37.5t-43 16.5q-53 10 -92 10q-72 0 -142.5 -24.5t-122.5 -60t-97 -80t-72 -82
t-42 -67.5v-114q0 -134 32 -218t86 -90l18 -2q2 -14 2 -38v-22h-556zM940 272q0 -66 41.5 -105t98.5 -39q46 0 84 26l-2 304q-91 0 -156.5 -46.5t-65.5 -139.5z" />
    <glyph glyph-name="r.alt01" horiz-adv-x="736" 
d="M28 0v22l2 38l18 2q56 6 86 94t30 228q0 129 -9 191.5t-32 96.5t-75 62l-18 10q-2 8 -2 20l362 148h56v-290q21 72 54 150t89.5 170t123 162.5t159.5 118t194 47.5q70 0 116 -46t46 -120q0 -65 -51 -100t-109 -18q-81 24 -148 24q-59 0 -112.5 -18t-93 -44.5t-77.5 -71.5
t-62.5 -83t-51.5 -97.5t-41.5 -95t-35.5 -94.5v-136q0 -134 31 -218t85 -90l20 -2q2 -14 2 -38v-22h-556z" />
    <glyph glyph-name="r.alt02" horiz-adv-x="682" 
d="M28 0v22l2 38l18 2q56 6 86 94t30 228q0 129 -9 191.5t-32 96.5t-75 62l-18 10q-2 8 -2 20l362 148h56v-234q22 49 53.5 102.5t80 116.5t104.5 121t129.5 111.5t153 91.5t176.5 58t197 13q72 -5 110 -44.5t38 -113.5q0 -66 -52.5 -102.5t-109.5 -15.5q-132 48 -244 48
q-95 0 -184 -31t-156.5 -79.5t-127 -114t-99 -127.5t-69.5 -126v-216q0 -134 31 -218t85 -90l20 -2q2 -14 2 -38v-22h-556z" />
    <glyph glyph-name="r_i" horiz-adv-x="1452" 
d="M28 0v22l2 38l18 2q56 6 86 94t30 228q0 129 -9 191.5t-32 96.5t-75 62l-18 10q-2 8 -2 20l362 148h56v-290q21 73 54 152t89.5 172t123 165t159.5 120.5t194 48.5q86 0 141.5 -49t54.5 -129q0 -69 -61.5 -106t-132.5 -18q-74 20 -142 20q-61 0 -115 -17.5t-94.5 -43
t-78.5 -68.5t-63 -81t-52 -94.5t-41.5 -94t-35.5 -93.5v-136q0 -134 31 -218t85 -90l20 -2q2 -14 2 -38v-22h-556zM860 764l364 148h56v-542q0 -133 31.5 -217.5t84.5 -90.5l20 -2q2 -14 2 -38v-22h-558v22l2 38l18 2q56 6 87 94t31 226q0 129 -10 193t-33 97t-75 62l-18 10
q-2 10 -2 20z" />
    <glyph glyph-name="r_s" horiz-adv-x="1488" 
d="M28 764l362 148h56v-208q18 51 43.5 103.5t65 114.5t86 116.5t110 105.5t134 86t160 53.5t185.5 12.5q72 -5 110 -44.5t38 -113.5q0 -66 -52.5 -102.5t-109.5 -15.5q-124 46 -232 46q-346 0 -538 -474v-222q0 -134 31 -218t85 -90l20 -2q2 -14 2 -38v-22h-556v22l2 38
l18 2q56 6 86 94t30 228q0 129 -9 191.5t-32 96.5t-75 62l-18 10q-2 8 -2 20zM712 70l-12 240q4 0 12 -1t14 -1q16 -44 42.5 -87.5t63 -84t85 -65.5t99.5 -25q73 0 116.5 37.5t43.5 100.5q0 42 -46 85t-124 73q-134 52 -215 132.5t-81 159.5q0 132 114.5 217t305.5 85
q70 0 153.5 -26t124.5 -74l-8 -220h-28q-2 5 -15.5 31.5t-18 34.5t-17.5 32.5t-20 34t-21 30t-24 29.5t-25.5 23t-29 20.5t-30.5 12t-35 6.5q-84 4 -138 -38t-56 -98q-1 -43 55.5 -76t193.5 -88q20 -8 31 -12q92 -37 148 -111.5t56 -156.5q0 -142 -115.5 -226t-312.5 -84
q-83 0 -159.5 24.5t-126.5 65.5z" />
    <glyph glyph-name="s.alt01" horiz-adv-x="936" 
d="M490 -190q-137 1 -243 52t-154 128t-56 160.5t45 158t154 111.5q49 26 122 26q106 0 188 -52t68 -132q-9 -38 -31 -59t-51 -23q-38 -2 -58.5 21t-24 53t-10 59t-19.5 35q-58 28 -112 -35q-53 -62 -58 -158q-6 -121 77 -188q66 -53 177 -57q129 3 181 113q47 97 14 222
q-33 126 -126 190q-59 41 -131 45q-67 4 -123 -1t-78 -10t-27 -9q-64 22 -101 85.5t-37 126.5q0 78 28 145.5t81.5 119.5t137.5 82.5t189 32.5q74 1 172.5 -34t151.5 -78l14 -264h-24q-25 45 -59 89t-76.5 85.5t-92.5 67t-98 24.5q-95 -1 -142.5 -48t-33.5 -120
q6 -31 35.5 -56.5t73.5 -44t99 -41.5t111 -46t109 -60t94.5 -82t66.5 -113.5t25 -152.5q0 -148 -128.5 -258.5t-319.5 -109.5z" />
    <glyph glyph-name="s_m" horiz-adv-x="2492" 
d="M22 310q3 0 10.5 -1t13.5 -1q17 -45 43.5 -88t63 -83.5t85 -65.5t100.5 -25q72 0 115 37.5t43 100.5q0 42 -45.5 85t-122.5 73q-133 52 -214.5 135.5t-81.5 162.5q0 67 34 134t100 125t178 94.5t252 36.5q77 1 138 -3t135 -18.5t131 -40.5t112 -72.5t92 -111.5l-8 -6
l8 -2v-10q44 62 136 109t204 47q163 0 204 -174q59 64 167.5 119t210.5 55q216 0 216 -308v-244q0 -134 31 -218t85 -90l20 -2v-60h-558v60l24 2q54 4 85 88.5t31 219.5v214q0 78 -40 141t-100 63q-83 0 -162 -120q2 -18 2 -54v-244q0 -135 31 -219.5t85 -88.5l26 -2v-60
h-542v60l10 2q53 10 80.5 91t27.5 217v214q0 79 -36 143.5t-92 64.5q-71 0 -146 -108v-314q0 -134 32 -218t86 -90l20 -2v-60h-556v22l2 38l20 2q54 6 85 94.5t31 227.5v178q5 75 -21 148t-73 127.5t-113.5 87t-138.5 31.5q-142 -3 -228 -61.5t-86 -154.5q0 -17 7.5 -32
t28 -30.5t38.5 -27t58 -29.5t66.5 -29t81.5 -34q92 -37 147 -111.5t55 -156.5q0 -142 -115.5 -226t-312.5 -84q-82 0 -159 24.5t-127 65.5z" />
    <glyph glyph-name="s_n" horiz-adv-x="1920" 
d="M22 310q3 0 10.5 -1t13.5 -1q17 -45 43.5 -88t63 -83.5t85 -65.5t100.5 -25q72 0 115 37.5t43 100.5q0 42 -45.5 85t-122.5 73q-133 52 -214.5 135.5t-81.5 162.5q0 67 34 134t100 125t178 94.5t252 36.5q77 1 138 -3t135 -18.5t131 -40.5t112 -72.5t92 -111.5l-8 -6
l8 -2v-10q44 62 136 109t204 47q216 0 216 -308v-244q0 -135 31 -219.5t85 -88.5l26 -2v-60h-542v60l10 2q53 10 80.5 91t27.5 217v214q0 79 -36 143.5t-92 64.5q-71 0 -146 -108v-314q0 -134 32 -218t86 -90l20 -2v-60h-556v22l2 38l20 2q54 6 85 94.5t31 227.5v178
q5 75 -21 148t-73 127.5t-113.5 87t-138.5 31.5q-142 -3 -228 -61.5t-86 -154.5q0 -17 7.5 -32t28 -30.5t38.5 -27t58 -29.5t66.5 -29t81.5 -34q92 -37 147 -111.5t55 -156.5q0 -142 -115.5 -226t-312.5 -84q-82 0 -159 24.5t-127 65.5z" />
    <glyph glyph-name="t.alt01" horiz-adv-x="646" 
d="M2 738l-2 80q47 -14 93 11t89 86t74 116.5t71 137.5q0 1 0.5 1.5t0.5 1.5h62v-258q103 71 205 133t236.5 131.5t269 110.5t243.5 41q115 0 200 -50q42 -25 69 -61t34 -78.5t-19 -84.5q-22 -37 -58 -59.5t-72 -22.5q-44 0 -70 32q-97 116 -272 116q-277 0 -766 -304v-20
q-2 -394 -2 -568q0 -66 20.5 -88t79.5 -22q35 0 83 26t89 86l20 -26q-37 -65 -85 -111.5t-95 -67t-83 -29t-67 -8.5q-99 0 -151 25t-75 86.5t-22 178.5l2 438q-52 -2 -102 20z" />
    <glyph glyph-name="t_i" horiz-adv-x="1274" 
d="M-10 798v32q72 15 168 108t186 234h46v-298q75 13 129.5 28t106.5 41t84 60.5t51 86t19 118.5q0 48 36 83t84 47t88 2q51 -13 73 -55.5t16.5 -89t-29.5 -83.5q-156 -235 -658 -308v-6q-2 -394 -2 -568q0 -66 20.5 -88t79.5 -22q35 0 83 26t89 86l20 -26
q-37 -65 -85 -111.5t-95 -67t-83 -29t-67 -8.5q-144 0 -194 59t-50 231v518h-116zM702 0v22l2 38l20 2q56 6 86 93.5t30 226.5q0 98 -3.5 150t-18.5 88t-34 51.5t-60 36.5l-20 10q-2 10 -2 20l366 148h56v-516q0 -134 31 -218t85 -90l20 -2q2 -14 2 -38v-22h-560z" />
    <glyph glyph-name="t_t" horiz-adv-x="1330" 
d="M-10 830q72 15 168 108t186 234h46v-260h232q114 -6 202.5 55.5t179.5 204.5h48v-260h266v-114h-266q-2 -394 -2 -568q0 -66 20 -88t80 -22q35 0 83 26t89 86l20 -26q-37 -65 -85 -111.5t-96 -67t-84 -29t-67 -8.5q-144 0 -193 58.5t-49 231.5v518h-378q-2 -394 -2 -568
q0 -66 20.5 -88t79.5 -22q35 0 83 26t89 86l20 -26q-37 -65 -85 -111.5t-95 -67t-83 -29t-67 -8.5q-144 0 -194 59t-50 231v518h-116v32z" />
    <glyph glyph-name="v_a" horiz-adv-x="1812" 
d="M-92 912h566v-22l-2 -38l-20 -2q-34 -3 -40.5 -42.5t16 -108.5t70.5 -157q83 -151 126 -234q29 62 49 104.5t47.5 97t50 91.5t51.5 80.5t56 72.5t60.5 60t68 50t74.5 35t85.5 23.5t95.5 7.5q90 4 159 -8t114 -39.5t75 -62.5t45 -85.5t21 -99t6 -111.5v-266q0 -70 17 -106
t61 -36q61 0 84 42l30 -38q-39 -71 -109.5 -107.5t-196.5 -36.5q-60 0 -104 26t-62 72q-55 -35 -139.5 -61.5t-160.5 -26.5q-109 0 -179.5 72t-68.5 168q1 61 28 111.5t72.5 84.5t99.5 59t116 39.5t113.5 22t100.5 9.5v76v28.5t-1 30.5t-3.5 34t-7.5 31t-12 31.5t-18.5 25
t-26.5 21t-35.5 11t-45.5 3.5q-66 2 -126.5 -21t-108 -61t-94.5 -97.5t-82.5 -120t-74.5 -139t-67.5 -144t-65.5 -146.5t-65 -135h-74l-304 562q-30 60 -65.5 119t-93.5 122.5t-105 68.5v60zM1136 272q0 -65 48.5 -104.5t111.5 -39.5q52 0 90 26l-2 342q-89 0 -168.5 -64.5
t-79.5 -159.5z" />
    <glyph glyph-name="v.alt01" horiz-adv-x="970" 
d="M-138 852v60h602v-22l-2 -38l-20 -2q-34 -3 -40.5 -42.5t16 -108.5t70.5 -157q22 -41 58.5 -113t55.5 -107l98 188q15 37 27 63.5t43.5 93t60 119t73.5 126.5t87.5 131t98.5 118t110.5 101t119 66.5t128.5 27.5q76 2 132 -35t56 -107t-42.5 -120t-97.5 -34
q-63 18 -118 18q-83 0 -161 -35.5t-136.5 -87t-115.5 -128.5t-93.5 -141.5t-75.5 -143.5l-276 -562h-54l-304 562q-12 25 -57 92.5t-47 71.5q-46 65 -99.5 103t-96.5 43z" />
    <glyph glyph-name="v_i" horiz-adv-x="1576" 
d="M58 706q-46 65 -99.5 103t-96.5 43v60h602v-22l-2 -38l-20 -2q-34 -3 -40.5 -42.5t16 -108.5t70.5 -157q22 -41 58.5 -113t55.5 -107l98 188q15 37 27 63.5t43.5 93t60 119t73.5 126.5t87.5 131t98.5 118t110.5 101t119 66.5t128.5 27.5q76 2 132 -35t56 -107t-42.5 -120
t-97.5 -34q-63 18 -118 18q-83 0 -161 -35.5t-136.5 -87t-115.5 -128.5t-93.5 -141.5t-75.5 -143.5l-276 -562h-54l-304 562q-12 25 -57 92.5t-47 71.5zM1010 764l366 148h56v-542q0 -134 31 -218t85 -90l20 -2q2 -14 2 -38v-22h-560v22l2 38l20 2q56 6 86 93.5t30 226.5
q0 131 -8.5 194t-32 97.5t-75.5 60.5l-20 10q-2 10 -2 20z" />
    <glyph glyph-name="w_a" horiz-adv-x="2708" 
d="M20 852v60h564v-22l-2 -38l-18 -2q-43 -5 -34 -77.5t66 -190.5l148 -276l186 406q-50 71 -86.5 103.5t-75.5 36.5v60h564v-22l-2 -38l-18 -2q-34 -4 -39.5 -43.5t16.5 -107.5t69 -157q17 -32 60.5 -111.5t65.5 -122.5q112 245 167 336q107 176 237 240q94 46 214 46
q90 4 159 -8t114 -39.5t75 -62.5t45 -85.5t21 -99t6 -111.5v-266q0 -70 17 -106t61 -36q61 0 84 42l30 -38q-39 -71 -109.5 -107.5t-196.5 -36.5q-60 0 -104 26t-62 72q-55 -35 -139.5 -61.5t-160.5 -26.5q-109 0 -179.5 72t-68.5 168q1 61 28 111.5t72.5 84.5t99.5 59
t116 39.5t113.5 22t100.5 9.5v76v28.5t-1 30.5t-3.5 34t-7.5 31t-12 31.5t-18.5 25t-26.5 21t-35.5 11t-45.5 3.5q-66 2 -125.5 -21t-106 -61.5t-91.5 -97t-79 -119.5t-71 -139t-64.5 -144.5t-63 -146.5t-63.5 -135h-76l-302 562q-29 56 -66 116l-322 -678h-46l-304 562
q-71 133 -141.5 217.5t-116.5 90.5zM1976 272q0 -65 48.5 -104.5t111.5 -39.5q52 0 90 26l-2 342q-89 0 -168.5 -64.5t-79.5 -159.5z" />
    <glyph glyph-name="w_a_y" horiz-adv-x="3766" 
d="M36 850l-16 2v60h564v-22l-2 -38l-18 -2q-43 -5 -34 -77.5t66 -190.5l148 -276l186 406q-50 71 -86.5 103.5t-75.5 36.5v60h564v-22l-2 -38l-18 -2q-34 -4 -39.5 -43.5t16.5 -107.5t69 -157q17 -32 60.5 -111.5t65.5 -122.5l30 66q43 94 65.5 141.5t64.5 128t72.5 122.5
t78.5 96.5t93.5 81.5t105.5 46.5t126 19.5q107 5 185.5 -23t123 -74t71 -115t34.5 -132.5t8 -141.5v-266q0 -71 16.5 -106.5t61.5 -35.5q59 0 82 42l32 -38q-41 -72 -111 -108t-197 -36q-59 0 -102.5 26t-61.5 72q-55 -35 -139.5 -61.5t-160.5 -26.5q-109 0 -179.5 72
t-68.5 168q0 61 26.5 111.5t72 84.5t99.5 59t116.5 39.5t113.5 22t100 9.5v76v42.5t-2.5 50.5t-7.5 59.5t-16 53.5t-26 49.5t-40 30t-56 10.5q-66 2 -127 -24t-109 -70.5t-94.5 -110t-82.5 -134.5t-74.5 -154t-67.5 -157.5t-64.5 -155t-64.5 -138.5h-76l-302 562
q-29 56 -66 116l-322 -678h-46l-304 562q-71 133 -141.5 217.5t-116.5 90.5zM1640 1076q-52 -23 -96 30t-44 124q0 29 11.5 51.5t27 36t44.5 25t49 16.5t56 13q137 28 248 28q125 0 242 -30t207 -77t173.5 -113.5t142.5 -130t111 -135.5l354 -2v-22v-11t0.5 -9t0 -6.5
t-0.5 -5t-1 -3.5t-2 -2.5t-3 -1l-4 -1t-6 -0.5q-35 -9 -13.5 -91t93.5 -217q17 -32 60.5 -111.5t65.5 -122.5l106 234q60 134 73.5 217t-25.5 91q-4 0 -6 0.5l-4 1t-3 1t-2 2.5t-1 3.5t-0.5 5t0 6.5t0.5 9v11v22h338v-60l-22 -2q-56 -4 -129.5 -88.5t-142.5 -219.5
l-284 -562q-16 -31 -39.5 -79.5t-40 -83t-42 -79t-48.5 -76t-56.5 -64.5t-69.5 -53t-83.5 -32.5t-102.5 -12.5q-74 0 -118 32.5t-44 87.5t38.5 88.5t103.5 33.5q27 0 75 -13t83 -26l34 -13q32 1 68 35t68.5 91t54.5 102t44 94q3 8 5 12l-280 518q-18 34 -50.5 96t-47.5 90
q-126 207 -311 329.5t-413 122.5q-209 0 -442 -104zM1996 272q0 -65 48.5 -104.5t111.5 -39.5q50 0 88 26l-2 342q-88 0 -167 -64.5t-79 -159.5z" />
    <glyph glyph-name="w.alt01" horiz-adv-x="1732" 
d="M-58 852v60h564v-22l-2 -38l-18 -2q-43 -5 -34 -77.5t66 -190.5l150 -276l184 406q-50 71 -86.5 103.5t-75.5 36.5v60h566v-22l-2 -38l-20 -2q-34 -3 -40.5 -42.5t16 -108.5t70.5 -157q25 -45 64.5 -124.5t47.5 -95.5l100 190q14 33 27 63.5t43.5 93.5t60 118.5t73.5 127
t87.5 130t99 117.5t110 99.5t118.5 67t127 27.5q77 2 132.5 -35t55.5 -107t-42 -120t-96 -34q-63 18 -120 18q-81 0 -158.5 -35t-136 -86.5t-115.5 -127t-94.5 -139t-75.5 -140.5q0 -1 -1 -4t-1 -4l-40 -78q-7 -13 -15 -32t-11 -24v2l-216 -430h-46l-304 562q-17 36 -66 116
l-322 -678h-46l-302 562q-72 134 -142 219t-116 89z" />
    <glyph glyph-name="w.alt02" horiz-adv-x="1740" 
d="M-542 1070q-54 -15 -96 34.5t-42 119.5t55.5 107t132.5 35q276 -5 556 -454h422v-60l-18 -2q-29 -3 -35 -37t10.5 -94t54.5 -137l150 -276l184 406q-51 72 -86 104t-74 36v60h564v-22l-2 -38l-20 -2q-34 -3 -40 -42.5t17 -108.5t71 -157q19 -34 40 -73t46.5 -87t39.5 -74
l106 234q60 134 61 218.5t-59 89.5l-26 2v38l-2 22h394v-60l-20 -2q-56 -6 -130 -90t-142 -218l-286 -562h-46l-302 562q-13 24 -36.5 64.5t-29.5 51.5l-322 -678h-48l-302 562q-39 73 -87 143.5t-112.5 144.5t-132 129t-148.5 90t-160 35q-52 0 -100 -14z" />
    <glyph glyph-name="w_i" horiz-adv-x="2324" 
d="M-40 850l-18 2v60h564v-22l-2 -38l-18 -2q-43 -5 -34 -77.5t66 -190.5l150 -276l184 406q-50 71 -86.5 103.5t-75.5 36.5v60h566v-22l-2 -38l-20 -2q-34 -3 -40.5 -42.5t16 -108.5t70.5 -157q25 -45 64.5 -124.5t47.5 -95.5l100 190q14 33 27 63.5t43.5 93.5t60 118.5
t73.5 127t87.5 130t99 117.5t110 99.5t118.5 67t127 27.5q77 2 132.5 -35t55.5 -107t-42 -120t-96 -34q-63 18 -120 18q-81 0 -158.5 -35t-136 -86.5t-115.5 -127t-94.5 -139t-75.5 -140.5q0 -1 -1 -4t-1 -4l-40 -78q-7 -13 -15 -32t-11 -24v2l-216 -430h-46l-304 562
q-17 36 -66 116l-322 -678h-46l-302 562q-72 134 -142 219t-116 89zM1760 764l364 148h56v-542q0 -133 31.5 -217.5t84.5 -90.5l20 -2q2 -14 2 -38v-22h-558v22l2 38l18 2q56 6 87 94t31 226q0 129 -10 193t-33 97t-75 62l-18 10q-2 10 -2 20z" />
    <glyph glyph-name="y.alt01" horiz-adv-x="1032" 
d="M-86 852v60h566v-22v-11t0.5 -9t0 -6.5t-0.5 -5t-1 -3.5t-2 -2.5t-3 -1l-4 -1t-6 -0.5q-23 -7 -22.5 -44.5t27.5 -106.5t75 -157q19 -34 40 -73t46.5 -87t39.5 -74l80 180q124 278 237 448q255 384 509 390q76 2 132 -35t56 -107t-42.5 -120t-97.5 -34q-60 18 -116 18
q-61 0 -120.5 -20t-109 -52t-98.5 -79.5t-86.5 -95t-76 -107t-65 -107.5t-54.5 -103l-32 -62q-7 -13 -28 -60v2l-192 -384q-18 -34 -46.5 -94t-47.5 -97.5t-48.5 -88t-60 -81.5t-71 -61t-92.5 -44t-114 -14q-75 0 -119.5 32.5t-44.5 87.5q0 56 39 89t105 33q26 0 74 -13
t83 -26l35 -13q29 1 60 28t59 73t49 86t43 89t27 58l-278 518q-71 134 -148.5 219t-133.5 89z" />
    <glyph glyph-name="y.alt02" horiz-adv-x="1028" 
d="M-684 1224q0 70 55.5 107t132.5 35q277 -5 556 -452l416 -2v-22v-11t0.5 -9t0 -6.5t-0.5 -5t-1 -3.5t-2 -2.5t-3 -1l-4 -1t-6 -0.5q-23 -7 -22.5 -44.5t27.5 -106.5t75 -157q19 -34 40 -73t46.5 -87t39.5 -74l106 234q61 135 73.5 217t-27.5 91q-4 1 -5 1t-4 1t-3 1.5
t-1.5 2.5t-1 3t0 4.5t0 6.5t0.5 9v11v22h336v-60l-20 -2q-56 -6 -130 -90t-142 -218l-286 -562q-16 -30 -39.5 -79t-39.5 -83.5t-41.5 -79.5t-48.5 -76t-56.5 -64t-69 -52.5t-83.5 -32.5t-102 -13q-75 0 -119.5 32.5t-44.5 87.5q0 56 39 89t105 33q26 0 74 -13t83 -26
l35 -13q97 2 238 334l-278 518q-113 214 -280 366q-1 1 -4 3t-4 3h2q-191 170 -372 170q-54 0 -102 -14q-54 -15 -96 34.5t-42 119.5z" />
    <glyph glyph-name="y.alt03" horiz-adv-x="1014" 
d="M-774 -608q-87 24 -128 95t-16 161q19 72 104 72q58 0 134 -36q253 -128 470 -128q408 0 690 468l-280 518q-73 134 -149.5 218t-132.5 90l-20 2v60h564v-22v-11t0.5 -9t0 -6.5t-0.5 -5t-1 -3.5t-2 -2.5t-3 -1l-4 -1t-6 -0.5q-23 -7 -22.5 -44.5t27.5 -106.5t75 -157
q83 -151 126 -234l106 234q60 134 73.5 217t-25.5 91q-4 0 -6 0.5l-4 1t-3 1t-2 2.5t-1 3.5t-0.5 5t0 6.5t0.5 9v11v22h338v-60l-22 -2q-56 -4 -129.5 -88.5t-142.5 -219.5l-284 -562h-2q-149 -270 -444.5 -446t-615.5 -176q-140 0 -262 34z" />
    <glyph glyph-name="y.alt04" horiz-adv-x="1014" 
d="M-398 -452q-51 27 -82 77t-33 97.5t15 87.5q41 76 122 76q58 0 116 -40q222 -152 358 -152q104 0 195 78.5t187 251.5l-280 518q-73 134 -149.5 218t-132.5 90l-20 2v60h564v-22v-11t0.5 -9t0 -6.5t-0.5 -5t-1 -3.5t-2 -2.5t-3 -1l-4 -1t-6 -0.5q-23 -7 -22.5 -44.5
t27.5 -106.5t75 -157q83 -151 126 -234l106 234q60 134 73.5 217t-25.5 91q-4 0 -6 0.5l-4 1t-3 1t-2 2.5t-1 3.5t-0.5 5t0 6.5t0.5 9v11v22h338v-60l-22 -2q-56 -4 -129.5 -88.5t-142.5 -219.5l-260 -514q-114 -259 -288 -409.5t-382 -150.5q-148 0 -302 80z" />
    <glyph glyph-name="y.alt05" horiz-adv-x="1032" 
d="M-86 852v60h566v-22v-11t0.5 -9t0 -6.5t-0.5 -5t-1 -3.5t-2 -2.5t-3 -1l-4 -1t-6 -0.5q-23 -7 -22.5 -44.5t27.5 -106.5t75 -157q22 -39 57 -117.5t55 -116.5q17 37 46.5 105.5t50 117.5t52.5 116.5t59 117t63 105t69.5 94t74.5 70t83 46.5q66 22 120 22q86 0 154 -47.5
t104 -120t43.5 -159t-14.5 -162.5t-83 -132.5t-150 -68.5q-57 -17 -123.5 5t-114.5 68t-72.5 107t2.5 122q16 39 48 59.5t64 12.5q24 -6 40 -16t22 -25t8 -29t-3 -34t-9.5 -33t-12.5 -34t-11 -29q-11 -34 22 -56q29 -20 58 -20q56 0 95.5 67t42.5 167q5 143 -29.5 200
t-124.5 54q-91 -3 -179.5 -117.5t-224.5 -398.5l-254 -502q-16 -31 -41 -82.5t-41.5 -85t-42.5 -79.5t-49 -75.5t-57 -62.5t-69.5 -51.5t-83.5 -31t-102 -12.5q-75 0 -119.5 32.5t-44.5 87.5q0 56 39 89t105 33q26 0 74 -13t83 -26l35 -13q29 1 60 28t59 73t49 86t43 89
t27 58l-278 518q-71 134 -148.5 219t-133.5 89z" />
    <glyph glyph-name="macron_glyph" 
d="M-16 1106v160h618v-160h-618z" />
    <glyph glyph-name="acute_glyph" 
d="M146 970l-32 24l18 72t42.5 135t59.5 127q36 94 48 94q37 0 99.5 -46.5t62.5 -73.5q0 -24 -66 -90q-28 -36 -86 -96.5t-102 -103.5z" />
    <glyph glyph-name="circumflex_glyph" 
d="M76 972l-30 24l158 324q40 80 88 80q54 0 92 -82q39 -84 78.5 -164.5t59.5 -119.5l20 -38l-30 -24q-126 140 -220 228q-93 -72 -216 -228z" />
    <glyph glyph-name="caron_glyph" 
d="M204 1104l-158 324l30 24q123 -156 216 -228q42 39 97 96t89 94l34 38l30 -24q-70 -132 -158 -322q-38 -82 -92 -82q-48 0 -88 80z" />
    <glyph glyph-name="breve_glyph" 
d="M4 1330l44 24q33 -59 99 -93.5t145 -34.5q82 0 148.5 34.5t99.5 93.5l42 -26q-72 -135 -151 -215.5t-139 -80.5q-57 0 -136 81t-152 217z" />
    <glyph glyph-name="dotaccent_glyph" 
d="M138 1212q0 73 41.5 116.5t112.5 43.5q72 0 114 -43t42 -117t-42 -117t-114 -43q-71 0 -112.5 43.5t-41.5 116.5z" />
    <glyph glyph-name="ring_glyph" 
d="M292 982q-77 0 -131.5 54t-54.5 130q0 86 50 136t136 50q87 0 138.5 -50.5t51.5 -135.5q0 -76 -56 -130t-134 -54zM184 1166q0 -50 31.5 -85t76.5 -35q46 0 79 35t33 85q0 55 -30.5 87.5t-81.5 32.5q-50 0 -79 -32.5t-29 -87.5z" />
    <glyph glyph-name="nobreakspace" horiz-adv-x="464" 
 />
    </font>
</defs>
</svg>
